<?xml version="1.0" standalone="no"?>
<!DOCTYPE svg PUBLIC "-//W3C//DTD SVG 1.1//EN" "http://www.w3.org/Graphics/SVG/1.1/DTD/svg11.dtd" >
<svg xmlns="http://www.w3.org/2000/svg">
<metadata></metadata>
<defs>
<font id="helvetica_neueregular" horiz-adv-x="1138" >
<font-face units-per-em="2048" ascent="1638" descent="-410" />
<missing-glyph horiz-adv-x="569" />
<glyph unicode="&#xfb01;" horiz-adv-x="1060" d="M25 905h178v-905h174v905h205v154h-205v147q0 70 34.5 94.5t98.5 24.5q23 0 49.5 -3t48.5 -11v151q-25 8 -56.5 12.5t-55.5 4.5q-143 0 -218 -66.5t-75 -195.5v-158h-178v-154zM748 0h174v1059h-174v-1059zM748 1249h174v213h-174v-213z" />
<glyph unicode="&#xfb02;" horiz-adv-x="1060" d="M25 905h178v-905h174v905h205v154h-205v147q0 70 34.5 94.5t98.5 24.5q23 0 49.5 -3t48.5 -11v151q-25 8 -56.5 12.5t-55.5 4.5q-143 0 -218 -66.5t-75 -195.5v-158h-178v-154zM748 0h174v1462h-174v-1462z" />
<glyph horiz-adv-x="2048" />
<glyph horiz-adv-x="2048" />
<glyph horiz-adv-x="682" />
<glyph horiz-adv-x="0" />
<glyph unicode="&#x9;" horiz-adv-x="569" />
<glyph unicode="&#xd;" horiz-adv-x="569" />
<glyph horiz-adv-x="0" />
<glyph unicode=" "  horiz-adv-x="569" />
<glyph unicode="&#x09;" horiz-adv-x="569" />
<glyph unicode="&#xa0;" horiz-adv-x="569" />
<glyph unicode="!" horiz-adv-x="530" d="M152 0h227v227h-227v-227zM168 1012l51 -637h92l51 637v450h-194v-450z" />
<glyph unicode="&#x22;" horiz-adv-x="872" d="M223 934h139v528h-139v-528zM510 934h139v528h-139v-528z" />
<glyph unicode="#" d="M70 422h198l-59 -422h141l60 422h254l-60 -422h141l60 422h207v139h-187l43 307h201v140h-182l59 419h-141l-60 -419h-253l59 419h-141l-60 -419h-227v-140h209l-43 -307h-219v-139zM430 561l43 307h254l-43 -307h-254z" />
<glyph unicode="$" d="M51 446q16 -215 137 -336.5t326 -142.5v-168h113v168q98 8 180 41t141.5 89.5t93 134t33.5 178.5q0 94 -35.5 161.5t-87 112.5t-106.5 70.5t-96 36.5l-123 32v504q188 -35 229 -237h174q-41 180 -139 282.5t-264 122.5v137h-113v-135q-88 -6 -165 -39t-133 -89t-89 -133 t-33 -169q0 -90 24.5 -153.5t77 -107.5t131.5 -76t187 -58v-543q-123 20 -204 100t-85 217h-174zM279 1085q0 117 68.5 177.5t166.5 70.5v-479q-51 14 -94 32.5t-75 44t-49 63.5t-17 91zM627 129v514q55 -16 104 -35.5t84 -48.5t55.5 -68.5t20.5 -99.5q0 -66 -19.5 -114 t-55.5 -79.5t-84 -48t-105 -20.5z" />
<glyph unicode="%" horiz-adv-x="2048" d="M188 1036q0 -84 17.5 -157.5t56.5 -129t102.5 -87t155.5 -31.5q90 0 151.5 34.5t101.5 91t57.5 131.5t17.5 154q0 84 -15.5 159t-53.5 130t-100.5 88t-158.5 33q-94 0 -157.5 -34t-102.5 -91t-55.5 -132t-16.5 -159zM342 1040q0 47 6 99.5t25.5 96.5t54.5 73.5t92 29.5 q59 0 93 -29.5t52.5 -73.5t23.5 -96.5t5 -97.5q0 -47 -6 -100t-25.5 -97t-54.5 -73t-94 -29q-57 0 -91 30t-52.5 74t-23.5 96t-5 97zM385 -43h176l1100 1522h-174zM1200 381q0 -84 17.5 -157.5t56.5 -128t102.5 -86.5t155.5 -32q90 0 151.5 34t101.5 90.5t57.5 131 t17.5 154.5q0 84 -15.5 159t-53.5 130t-100.5 88t-158.5 33q-94 0 -157.5 -34t-102.5 -91.5t-55.5 -132t-16.5 -158.5zM1354 385q0 47 6 99.5t25.5 96.5t54.5 73.5t92 29.5q59 0 93 -29.5t52.5 -73.5t23.5 -96.5t5 -97.5q0 -47 -6 -100.5t-25.5 -97.5t-54.5 -72.5t-94 -28.5 q-57 0 -91 29.5t-52.5 74t-23.5 96.5t-5 97z" />
<glyph unicode="&#x26;" horiz-adv-x="1290" d="M68 375q0 -45 15 -112.5t64.5 -131t139.5 -109t237 -45.5q121 0 234.5 51.5t179.5 153.5l156 -182h227l-285 330q23 49 39.5 87t27.5 76.5t18 85t14 111.5h-166q-6 -113 -47 -227l-265 321q53 31 102.5 69t88.5 85t61.5 103.5t22.5 121.5q0 74 -30 130.5t-79 94 t-113.5 56t-131.5 18.5q-80 0 -141.5 -24.5t-103.5 -66.5t-63.5 -96t-21.5 -114q0 -55 13 -99t37 -84t52.5 -79t59.5 -82q-70 -37 -132.5 -79t-108.5 -94t-73.5 -117.5t-27.5 -151.5zM252 377q0 66 20.5 114t55 86.5t81 69.5t97.5 60l336 -404q-53 -80 -132 -127t-180 -47 q-53 0 -103 18.5t-89 50t-62.5 78t-23.5 101.5zM422 1153q0 80 53 118t115 38q78 0 123 -46t45 -110q0 -47 -18.5 -85t-47 -68.5t-63.5 -55.5t-66 -45q-25 31 -49.5 61.5t-44.5 62.5t-33.5 64.5t-13.5 65.5z" />
<glyph unicode="'" horiz-adv-x="569" d="M215 934h139v528h-139v-528z" />
<glyph unicode="(" horiz-adv-x="530" d="M96 553q0 -135 22.5 -258t64.5 -239.5t101.5 -230t133.5 -228.5h133q-145 236 -207.5 467t-62.5 489q0 252 61 481.5t209 462.5h-133q-160 -211 -241 -456.5t-81 -487.5z" />
<glyph unicode=")" horiz-adv-x="530" d="M-18 -403h131q160 211 240.5 455.5t80.5 486.5q0 135 -22.5 258t-64.5 240.5t-101.5 231t-132.5 228.5h-131q143 -236 205.5 -468t62.5 -490q0 -250 -61.5 -480.5t-206.5 -461.5z" />
<glyph unicode="*" horiz-adv-x="720" d="M49 1214l217 -77l-133 -187l92 -63l133 196l142 -196l84 63l-135 187l223 77l-41 99l-219 -82v231h-109v-231l-217 82z" />
<glyph unicode="+" horiz-adv-x="1228" d="M98 449h447v-449h139v449h446v139h-446v448h-139v-448h-447v-139z" />
<glyph unicode="," horiz-adv-x="569" d="M170 0h121q2 -25 -3 -53.5t-19.5 -56t-38 -51t-58.5 -36.5v-102q119 35 172 119t53 200v207h-227v-227z" />
<glyph unicode="-" horiz-adv-x="796" d="M102 487h592v164h-592v-164z" />
<glyph unicode="." horiz-adv-x="569" d="M170 0h227v227h-227v-227z" />
<glyph unicode="/" horiz-adv-x="681" d="M-35 -33h148l606 1530h-150z" />
<glyph unicode="0" d="M86 713q0 -80 4 -166t20.5 -168t47 -154.5t84 -128t134.5 -87.5t193 -32q115 0 195 32t133 87.5t84 128t47 154.5t20.5 168t4.5 166t-4.5 166t-20.5 167.5t-47 155.5t-84 129t-134 88t-194 33t-193.5 -33t-134 -88t-84 -129t-47 -155.5t-20.5 -167.5t-4 -166zM270 715 q0 53 1 117.5t10.5 129t27 126t51 107.5t85 74.5t124.5 28.5q74 0 125 -28.5t85 -74.5t51.5 -107.5t26.5 -126t10 -129t1 -117.5q0 -82 -5 -183.5t-32.5 -190.5t-89 -150.5t-172.5 -61.5t-172 61.5t-88.5 150.5t-33 190.5t-5.5 183.5z" />
<glyph unicode="1" d="M178 1040h377v-1040h174v1452h-133q-14 -82 -53 -135t-95.5 -84t-126 -42t-143.5 -11v-140z" />
<glyph unicode="2" d="M49 0h948v154h-745q12 68 52 120t96.5 97t124 85t134.5 81q68 43 131.5 90t112.5 105.5t79 132t30 169.5q0 102 -36 180t-97.5 130.5t-144.5 80t-177 27.5q-115 0 -205 -39t-150.5 -107.5t-89 -162.5t-22.5 -205h174q-2 66 13.5 130.5t50 115.5t89 82.5t130.5 31.5 q57 0 108.5 -18t89 -53t60 -83t22.5 -108q0 -76 -23.5 -133t-69.5 -106t-115.5 -97.5t-161.5 -105.5q-76 -45 -145.5 -96.5t-125 -119t-91.5 -158.5t-46 -220z" />
<glyph unicode="3" d="M61 449q-2 -113 32 -201t97.5 -148.5t153.5 -91.5t201 -31q102 0 193 28t159 83t107.5 138t39.5 192q0 131 -64.5 227t-197.5 125v4q86 39 143.5 115t57.5 174q0 100 -34 174t-93 121t-140 70.5t-175 23.5q-109 0 -192 -35t-138 -96t-85 -147.5t-34 -190.5h174 q0 63 16.5 120.5t50.5 100.5t86 68.5t122 25.5q111 0 184.5 -58t73.5 -175q0 -57 -22.5 -102t-60.5 -75t-88 -45.5t-106 -15.5h-37h-20q-9 0 -19 2v-147q49 6 105 6q66 0 122 -17.5t97 -53t65.5 -88t24.5 -119.5q0 -66 -25.5 -118t-68.5 -88t-100.5 -55.5t-120.5 -19.5 q-150 0 -227.5 89t-81.5 231h-175z" />
<glyph unicode="4" d="M57 340h637v-340h164v340h197v154h-197v958h-139l-662 -944v-168zM207 494l483 710h4v-710h-487z" />
<glyph unicode="5" d="M72 391q2 -98 38.5 -176t100 -130t146.5 -80t178 -28q127 0 222 40t158.5 108t95 155t31.5 179q0 125 -36.5 218t-100 155.5t-149.5 93t-183 30.5q-74 0 -148.5 -25.5t-121.5 -78.5l-4 4l78 418h586v153h-717l-135 -753l149 -8q51 61 117.5 99t152.5 38q74 0 134.5 -24.5 t103.5 -68.5t66.5 -104.5t23.5 -132.5q0 -86 -24.5 -150.5t-66.5 -107.5t-98.5 -64.5t-117.5 -21.5q-66 0 -120 19.5t-94 55.5t-63.5 84t-27.5 103h-174z" />
<glyph unicode="6" d="M78 674q0 -115 17.5 -238t70.5 -225t151.5 -168t260.5 -66q137 0 230 46.5t149.5 117t81 156.5t24.5 166q0 100 -31 186t-87 149.5t-139 99.5t-188 36q-119 0 -210 -45t-152 -146l-4 5q2 84 16.5 180t52 179t105.5 137t178 54q104 0 168 -59.5t76 -157.5h174 q-16 180 -122.5 275.5t-287.5 95.5q-156 0 -258 -65.5t-163.5 -174t-87 -249t-25.5 -289.5zM285 453q0 68 19.5 128t58 104t94 69.5t129.5 25.5t129 -26.5t92 -70.5t54.5 -104.5t17.5 -127.5q0 -63 -19.5 -122t-56.5 -104t-91.5 -70.5t-125.5 -25.5q-72 0 -128.5 25.5 t-94 68.5t-58 102.5t-20.5 127.5z" />
<glyph unicode="7" d="M102 1264h762q-115 -121 -214 -264.5t-175 -304t-124 -336t-60 -359.5h194q10 170 57.5 350t122 350t170.5 319.5t207 258.5v149h-940v-163z" />
<glyph unicode="8" d="M82 418q0 -111 38 -194t104.5 -138t156.5 -82t194 -27q100 0 188.5 29t153 85t102.5 138t38 189q0 135 -63.5 228t-194.5 134q92 41 146 122t54 179q0 70 -24.5 136.5t-76.5 119t-136 84t-203 31.5q-84 0 -160.5 -24.5t-136 -71.5t-94.5 -116t-35 -159q0 -98 55.5 -181 t147.5 -120q-123 -43 -188.5 -138t-65.5 -224zM266 410q0 63 23.5 114t65.5 88t98.5 56.5t119.5 19.5q61 0 115.5 -21.5t95.5 -58.5t64.5 -87t23.5 -109q0 -61 -21.5 -112.5t-61 -89.5t-94 -59.5t-120.5 -21.5q-135 0 -222 75t-87 206zM317 1075q0 55 20.5 96t54.5 70t81 43 t98 14q106 0 175 -56t69 -167t-67.5 -172t-172.5 -61q-53 0 -100 14t-82 43t-55.5 73t-20.5 103z" />
<glyph unicode="9" d="M70 979q0 -106 29.5 -196.5t88 -154t144.5 -99t196 -35.5q106 0 196.5 54t139.5 146l4 -4q-8 -285 -88 -423t-239 -138q-104 0 -180.5 57.5t-86.5 163.5h-174q16 -188 137 -280.5t304 -92.5q264 0 383.5 202t119.5 579q0 207 -39.5 341t-107.5 212t-158 109.5t-192 31.5 q-104 0 -192.5 -35t-152 -97.5t-98 -149.5t-34.5 -191zM254 954q0 68 15.5 129.5t49 109.5t88 76.5t132.5 28.5q74 0 129 -26.5t93 -72.5t57.5 -105t19.5 -127q0 -63 -20.5 -122t-59.5 -103t-94.5 -69.5t-122.5 -25.5q-63 0 -115.5 25.5t-90.5 68.5t-59.5 98.5t-21.5 114.5z " />
<glyph unicode=":" horiz-adv-x="569" d="M170 0h227v227h-227v-227zM170 831h227v228h-227v-228z" />
<glyph unicode=";" horiz-adv-x="569" d="M170 0h121q2 -25 -3 -53.5t-19.5 -56t-38 -51t-58.5 -36.5v-102q119 35 173 119t52 200v207h-227v-227zM170 831h227v228h-227v-228z" />
<glyph unicode="&#x3c;" horiz-adv-x="1228" d="M94 455l1041 -469v137l-871 395l871 395v140l-1041 -471v-127z" />
<glyph unicode="=" horiz-adv-x="1228" d="M98 242h1032v139h-1032v-139zM98 655h1032v140h-1032v-140z" />
<glyph unicode="&#x3e;" horiz-adv-x="1228" d="M94 -14l1041 469v127l-1041 471v-140l871 -395l-871 -395v-137z" />
<glyph unicode="?" d="M113 1006h174q0 72 16 133t52 106t89.5 71.5t126.5 26.5q111 0 175.5 -63t72.5 -176q4 -76 -18.5 -129t-60.5 -97t-82 -84t-83.5 -87.5t-67.5 -107.5t-32 -146v-97h174v80q0 53 15.5 95t41 78t57.5 68t64 62q33 33 65 68t56.5 76t40 91t15.5 113q0 98 -32 174 t-89.5 128.5t-136 80t-175.5 27.5q-106 0 -192 -37t-145.5 -103.5t-91 -156.5t-29.5 -194zM446 0h228v227h-228v-227z" />
<glyph unicode="@" horiz-adv-x="1638" d="M86 737q0 -164 59.5 -304t163 -243.5t243.5 -163t302 -59.5q98 0 192.5 23.5t177.5 69.5t152.5 113t118.5 153h-129q-88 -113 -224 -180.5t-284 -67.5q-129 0 -243.5 50t-201.5 137t-137.5 206t-50.5 256q0 135 48.5 254t132 209t197.5 142t245 52q109 0 208 -36.5 t177 -105t124 -167t46 -219.5q0 -82 -26.5 -166t-67.5 -151.5t-91.5 -110.5t-97.5 -43q-49 0 -49 64q0 23 7.5 50t15.5 54l172 582h-129l-47 -129q-35 92 -96.5 130t-133.5 38q-109 0 -198 -51.5t-151 -133.5t-97 -186.5t-35 -210.5q0 -68 21.5 -127t59.5 -102.5t92 -69 t120 -25.5q76 0 141.5 42t112.5 96h6q4 -68 41 -101t90 -33q72 0 156 43t155.5 121t119.5 187.5t48 242.5q0 139 -55 255t-150.5 199t-222.5 130t-268 47q-156 0 -294 -59.5t-241.5 -163t-164 -241.5t-60.5 -296zM532 606q0 68 25 142.5t68 138t103 105.5t132 42 q33 0 62.5 -16.5t53 -42t37 -60t13.5 -71.5q0 -63 -24.5 -139t-67.5 -142.5t-100.5 -110.5t-124.5 -44q-78 0 -127.5 56t-49.5 142z" />
<glyph unicode="A" horiz-adv-x="1327" d="M-12 0h198l164 440h619l159 -440h215l-571 1462h-215zM412 604l247 682h5l243 -682h-495z" />
<glyph unicode="B" horiz-adv-x="1402" d="M160 0h706q109 0 192 36t139 94t85 134t29 156q0 135 -72 229t-207 123v4q104 41 160.5 126t56.5 202q0 111 -50 186.5t-122 118.5q-33 20 -79 30.5t-99 15.5t-107.5 6t-101.5 1h-530v-1462zM354 164v506h445q61 0 118.5 -11.5t101.5 -39t70.5 -74.5t26.5 -119 q0 -123 -72.5 -192.5t-201.5 -69.5h-488zM354 834v464h389q63 0 120 -7t100 -31.5t67.5 -69.5t24.5 -123q0 -117 -73 -175t-239 -58h-389z" />
<glyph unicode="C" horiz-adv-x="1478" d="M88 727q0 -160 42 -299t126 -241.5t211 -161t297 -58.5q281 0 442.5 153.5t190.5 430.5h-195q-6 -90 -36.5 -168t-85 -134t-129 -88t-171.5 -32q-131 0 -225 49t-154.5 132t-89 194.5t-28.5 236.5q0 115 28.5 221.5t89 189.5t153.5 132t224 49q154 0 265.5 -77.5 t144.5 -233.5h194q-16 117 -69 206t-133 148.5t-182.5 90t-217.5 30.5q-168 0 -298 -60.5t-217 -165t-132 -244.5t-45 -300z" />
<glyph unicode="D" horiz-adv-x="1441" d="M160 0h502q182 0 315 51t219 148.5t127 240t41 326.5q0 352 -182.5 524t-519.5 172h-502v-1462zM354 164v1134h328q135 0 227 -37.5t150.5 -110.5t84 -176.5t25.5 -234.5q0 -135 -27.5 -230t-70.5 -158.5t-97 -100.5t-109.5 -56.5t-104.5 -24.5t-82 -5h-324z" />
<glyph unicode="E" horiz-adv-x="1251" d="M160 0h1016v164h-822v506h760v164h-760v464h815v164h-1009v-1462z" />
<glyph unicode="F" horiz-adv-x="1175" d="M160 0h194v670h672v164h-672v464h766v164h-960v-1462z" />
<glyph unicode="G" horiz-adv-x="1554" d="M88 702q0 -143 47 -276t137 -235.5t219.5 -163t292.5 -60.5q129 0 256 50t213 165l52 -182h122v770h-641v-164h467v-23q0 -87 -27 -164q-30 -87 -90.5 -151.5t-148.5 -101.5t-203 -37q-123 0 -216 48t-156.5 129t-96 186.5t-32.5 220.5q0 117 28.5 228.5t89 198.5 t155.5 140t228 53q82 0 155 -19.5t130 -58t96 -99t54 -144.5h194q-20 129 -76.5 220t-139.5 150.5t-188.5 87t-224.5 27.5q-174 0 -304 -64.5t-217 -173t-131 -253t-44 -304.5z" />
<glyph unicode="H" horiz-adv-x="1478" d="M160 0h194v670h770v-670h195v1462h-195v-628h-770v628h-194v-1462z" />
<glyph unicode="I" horiz-adv-x="530" d="M168 0h194v1462h-194v-1462z" />
<glyph unicode="J" horiz-adv-x="1062" d="M45 391q0 -209 110.5 -316.5t315.5 -107.5q123 0 206 34t133 90t71.5 128t21.5 146v1097h-194v-1069q0 -121 -50.5 -192.5t-183.5 -71.5q-72 0 -118 21.5t-71.5 60.5t-35.5 92t-10 117v61h-195v-90z" />
<glyph unicode="K" horiz-adv-x="1366" d="M160 0h194v512l244 227l528 -739h246l-641 872l617 590h-252l-742 -729v729h-194v-1462z" />
<glyph unicode="L" d="M160 0h968v164h-774v1298h-194v-1462z" />
<glyph unicode="M" horiz-adv-x="1783" d="M164 0h184v1217h4l457 -1217h166l457 1217h4v-1217h184v1462h-266l-463 -1229l-461 1229h-266v-1462z" />
<glyph unicode="N" horiz-adv-x="1478" d="M158 0h184v1174h4l764 -1174h213v1462h-184v-1186h-4l-770 1186h-207v-1462z" />
<glyph unicode="O" horiz-adv-x="1556" d="M78 731q0 -150 44 -288t132 -244.5t219 -169t305 -62.5t305 62.5t219.5 169t132.5 245t44 287.5q0 150 -44 288t-132.5 244.5t-219.5 170t-305 63.5t-305 -63.5t-219 -170t-132 -244.5t-44 -288zM272 731q0 111 29 218.5t90.5 193.5t157.5 138t229 52t229.5 -52t158 -138 t90 -193.5t28.5 -218.5t-28.5 -218t-90 -193.5t-158 -138.5t-229.5 -52t-229 52t-157.5 138.5t-90.5 193.5t-29 218z" />
<glyph unicode="P" horiz-adv-x="1327" d="M160 0h194v598h447h8q215 0 327 112q114 114 113 320q0 205 -113.5 318.5t-334.5 113.5h-641v-1462zM354 762v536h381q166 0 243 -68.5t77 -199.5q0 -130 -77 -200q-75 -68 -234 -68h-9h-381z" />
<glyph unicode="Q" horiz-adv-x="1556" d="M78 731q0 -150 44 -288t132 -244.5t219 -169t305 -62.5q203 0 350 86l224 -178l98 123l-193 152q111 111 166.5 262t55.5 319q0 150 -44 288t-132.5 244.5t-219.5 170t-305 63.5t-305 -63.5t-219 -170t-132 -244.5t-44 -288zM272 731q0 111 29 218.5t90.5 193.5 t157.5 138t229 52t229.5 -52t158 -138t90 -193.5t28.5 -218.5q0 -135 -41 -259t-127 -210l-194 156l-103 -119l162 -129q-98 -41 -203 -41q-133 0 -229 52t-157.5 138.5t-90.5 194t-29 217.5z" />
<glyph unicode="R" horiz-adv-x="1402" d="M160 0h194v625h475q72 0 115 -21.5t69.5 -57.5t39 -84t20.5 -102q10 -53 12 -108t4.5 -103.5t9.5 -87t27 -61.5h217q-31 37 -46 85t-23 101.5t-10 108.5t-7 108q-6 53 -17 102.5t-34.5 89.5t-63.5 68.5t-104 41.5v4q133 37 193.5 137t60.5 233q0 178 -117.5 280.5 t-326.5 102.5h-688v-1462zM354 788v510h484q137 0 198.5 -69.5t61.5 -179.5q0 -80 -28 -130.5t-74 -80t-107 -40t-129 -10.5h-406z" />
<glyph unicode="S" horiz-adv-x="1327" d="M76 481q0 -133 48 -230t131 -159.5t192.5 -93.5t232.5 -31q100 0 201.5 23.5t183.5 76t134 135.5t52 199q0 109 -40 180.5t-106.5 119t-150.5 75t-171 48t-171 38t-150.5 44t-106.5 68.5t-40 109q0 72 28 120t74 77t105.5 41t120.5 12q152 0 249.5 -70.5t113.5 -228.5 h184q-4 121 -46 208t-115 144.5t-169 84t-209 26.5q-100 0 -195.5 -25.5t-170 -78t-119.5 -133t-45 -191.5q0 -100 40 -166.5t106.5 -108.5t150.5 -68t171 -45t171 -37.5t150.5 -48.5t106.5 -77t40 -123q0 -80 -33 -131t-86 -80.5t-119.5 -42t-132.5 -12.5 q-82 0 -159.5 20.5t-136 63.5t-94.5 109.5t-36 158.5h-184z" />
<glyph unicode="T" horiz-adv-x="1175" d="M4 1298h488v-1298h194v1298h488v164h-1170v-164z" />
<glyph unicode="U" horiz-adv-x="1478" d="M152 528q0 -293 158.5 -427t441.5 -134q276 0 425.5 140t149.5 421v934h-194v-934q0 -197 -97.5 -298t-283.5 -101q-197 0 -301.5 101.5t-104.5 297.5v934h-194v-934z" />
<glyph unicode="V" horiz-adv-x="1251" d="M0 1462l514 -1462h221l520 1462h-202l-422 -1267h-4l-418 1267h-209z" />
<glyph unicode="W" horiz-adv-x="1896" d="M25 1462l374 -1462h203l338 1229h4l334 -1229h203l391 1462h-195l-297 -1216h-4l-323 1216h-211l-328 -1216h-4l-287 1216h-198z" />
<glyph unicode="X" horiz-adv-x="1251" d="M0 0h217l406 604l393 -604h237l-514 752l484 710h-217l-381 -571l-365 571h-233l481 -710z" />
<glyph unicode="Y" horiz-adv-x="1327" d="M4 1462l565 -864v-598h195v598l559 864h-221l-428 -696l-438 696h-232z" />
<glyph unicode="Z" horiz-adv-x="1251" d="M45 0h1163v164h-932l908 1134v164h-1069v-164h839l-909 -1134v-164z" />
<glyph unicode="[" horiz-adv-x="530" d="M147 -403h383v139h-219v1622h219v139h-383v-1900z" />
<glyph unicode="\" horiz-adv-x="681" d="M-35 1497l604 -1530h150l-606 1530h-148z" />
<glyph unicode="]" horiz-adv-x="530" d="M0 -264v-139h383v1900h-383v-139h219v-1622h-219z" />
<glyph unicode="^" horiz-adv-x="1228" d="M102 541h146l364 737l371 -737h143l-446 886h-131z" />
<glyph unicode="_" horiz-adv-x="1024" d="M0 -152v-102h1024v102h-1024z" />
<glyph unicode="`" horiz-adv-x="454" d="M-45 1497l266 -293h131l-176 293h-221z" />
<glyph unicode="a" horiz-adv-x="1099" d="M74 272q0 -80 27.5 -136t75.5 -92t111.5 -51.5t135.5 -15.5q111 0 206 38t167 124q0 -86 40 -124t107 -38q80 0 125 27v135q-31 -10 -53 -10q-41 0 -48 28.5t-7 90.5v545q0 92 -35 149t-92.5 89t-128 42t-142.5 10q-88 0 -168 -18t-141 -60t-98 -110t-41 -166h174 q6 117 79.5 159t184.5 42q41 0 83 -6t75.5 -24.5t55 -53.5t21.5 -92q0 -49 -28.5 -75t-77.5 -39t-113.5 -20.5t-136.5 -21.5q-68 -12 -132 -30.5t-114.5 -54.5t-81 -93.5t-30.5 -147.5zM258 285q0 66 29.5 103.5t77 58t106.5 29.5t117.5 16.5t111.5 18.5t86 36v-178 q0 -37 -18 -79t-57 -78t-100.5 -59.5t-147.5 -23.5q-39 0 -77 8t-65.5 26.5t-45 48.5t-17.5 73z" />
<glyph unicode="b" horiz-adv-x="1214" d="M137 0h174v141h4q29 -47 71 -78.5t89 -50t95 -27t87 -8.5q121 0 212.5 43t151.5 118t90 175.5t30 212.5q0 113 -31 213.5t-91.5 177t-151.5 121.5t-214 45q-111 0 -203 -39.5t-135 -128.5h-4v547h-174v-1462zM305 530q0 74 17.5 146t56.5 128t100.5 91t149.5 35 q84 0 146.5 -33t102.5 -88t59 -125.5t19 -144.5q0 -78 -16 -152t-53 -131t-97.5 -92t-150.5 -35t-153.5 34t-103.5 89t-58.5 128t-18.5 150z" />
<glyph unicode="c" horiz-adv-x="1099" d="M74 516q0 -119 31.5 -218t94 -171t156 -111t213.5 -39q203 0 321 106.5t146 303.5h-178q-16 -123 -89 -190.5t-202 -67.5q-82 0 -141 33t-96 87t-54.5 123.5t-17.5 143.5q0 80 16.5 154.5t54.5 132t101.5 92.5t157.5 35q111 0 176.5 -55.5t85.5 -155.5h180 q-10 94 -49 162.5t-99.5 113.5t-139 66.5t-169.5 21.5q-125 0 -219 -44t-156.5 -120.5t-93 -180t-30.5 -222.5z" />
<glyph unicode="d" horiz-adv-x="1214" d="M74 532q0 -113 30.5 -213t91 -175.5t151.5 -121t214 -45.5q111 0 203 39t135 127h4v-143h174v1462h-174v-544h-4q-29 47 -71 78.5t-89 51t-94 27.5t-88 8q-121 0 -212 -44t-151.5 -118.5t-90 -175t-29.5 -213.5zM258 520q0 78 16.5 151.5t53.5 131t98 92.5t149 35 q90 0 154 -34t103.5 -89t58 -128t18.5 -151q0 -74 -17.5 -145.5t-56 -127.5t-100 -91t-149.5 -35q-84 0 -146.5 33t-102.5 88t-59.5 125.5t-19.5 144.5z" />
<glyph unicode="e" horiz-adv-x="1099" d="M74 532q4 -121 35.5 -223t95 -176t157 -115t220.5 -41q180 0 298.5 90.5t153.5 268.5h-172q-23 -104 -93.5 -155.5t-180.5 -51.5q-86 0 -149.5 28.5t-104.5 76.5q-42 50 -60 112q-17 56 -16 118v13h793q1 15 1 30q0 83 -18 173q-22 106 -78.5 196.5t-149.5 148.5t-235 58 q-109 0 -199.5 -41t-157.5 -114.5t-103.5 -174t-36.5 -221.5zM258 631q4 61 26.5 115.5t61.5 95.5t93.5 64.5t121.5 23.5q66 0 120 -23.5t94 -63.5t63.5 -95.5t27.5 -116.5h-608z" />
<glyph unicode="f" horiz-adv-x="606" d="M25 905h178v-905h174v905h205v154h-205v147q0 70 34.5 94.5t98.5 24.5q23 0 49.5 -3t48.5 -11v151q-25 8 -56.5 12.5t-55.5 4.5q-143 0 -218 -66.5t-75 -195.5v-158h-178v-154z" />
<glyph unicode="g" horiz-adv-x="1175" d="M74 524q0 -109 29.5 -206t89 -169.5t147.5 -115.5t207 -43q102 0 193 46t137 144h4v-69q0 -88 -17.5 -162t-56.5 -126t-98.5 -82t-145.5 -30q-43 0 -90 9.5t-87 30t-67.5 53t-29.5 79.5h-174q4 -86 45 -145.5t103.5 -96t139 -53t150.5 -16.5q254 0 372.5 129t118.5 389 v969h-163v-152h-2q-47 88 -131 132t-185 44q-137 0 -231 -52t-151.5 -133t-82 -180.5t-24.5 -193.5zM258 545q0 76 17.5 145.5t55.5 122.5t97 85t143 32q82 0 139.5 -33t93.5 -87t52 -121.5t16 -137.5q0 -74 -17 -147.5t-54 -132t-97.5 -94.5t-146.5 -36t-143.5 36t-92 94.5 t-49 130t-14.5 143.5z" />
<glyph unicode="h" d="M131 0h174v598q0 72 19.5 132.5t58.5 105.5t97.5 69.5t137.5 24.5q100 0 158 -57.5t58 -155.5v-717h174v696q0 86 -17.5 157t-60.5 122t-112.5 79.5t-174.5 28.5q-47 0 -97 -10t-96.5 -31.5t-83 -55.5t-57.5 -83h-4v559h-174v-1462z" />
<glyph unicode="i" horiz-adv-x="454" d="M141 0h174v1059h-174v-1059zM141 1249h174v213h-174v-213z" />
<glyph unicode="j" horiz-adv-x="454" d="M-27 -246v-149q41 -8 88 -8q117 0 185.5 64.5t68.5 205.5v1192h-174v-1163q0 -82 -20.5 -114t-77.5 -32h-37q-8 0 -15 1t-18 3zM141 1249h174v213h-174v-213z" />
<glyph unicode="k" horiz-adv-x="1062" d="M141 0h174v401l164 152l363 -553h221l-451 674l420 385h-233l-484 -463v866h-174v-1462z" />
<glyph unicode="l" horiz-adv-x="454" d="M141 0h174v1462h-174v-1462z" />
<glyph unicode="m" horiz-adv-x="1746" d="M131 0h174v659q0 31 15.5 77t49 89t88 74t130.5 31q59 0 97 -17.5t60.5 -49.5t31.5 -75t9 -94v-694h175v659q0 123 73.5 197t202.5 74q63 0 103 -18.5t62.5 -50.5t31 -75t8.5 -92v-694h174v776q0 82 -25.5 140.5t-71.5 95.5t-111 54t-144 17q-104 0 -191.5 -47 t-140.5 -133q-33 98 -113 139t-178 41q-223 0 -342 -180h-4v156h-164v-1059z" />
<glyph unicode="n" d="M131 0h174v598q0 72 19.5 132.5t58.5 105.5t97.5 69.5t137.5 24.5q100 0 158 -57.5t58 -155.5v-717h174v696q0 86 -17.5 157t-60.5 122t-112.5 79.5t-174.5 28.5q-236 0 -344 -192h-4v168h-164v-1059z" />
<glyph unicode="o" horiz-adv-x="1175" d="M74 528q0 -117 32.5 -217t98 -175t162 -117t221.5 -42q127 0 222 42t160.5 117t98.5 175.5t33 216.5q0 117 -33 218.5t-98.5 176t-160.5 117.5t-222 43q-125 0 -221.5 -43t-162 -117.5t-98 -176t-32.5 -218.5zM258 528q0 96 25.5 171t70.5 126.5t105.5 78t128.5 26.5 t128 -26.5t105 -78t71 -126t26 -171.5q0 -96 -26 -170.5t-71 -125t-105.5 -77t-127.5 -26.5q-68 0 -128.5 26.5t-105.5 77t-70.5 125t-25.5 170.5z" />
<glyph unicode="p" horiz-adv-x="1214" d="M137 -403h174v544h4q29 -47 71 -78.5t89 -50t95 -27t87 -8.5q121 0 212.5 43t151.5 118t90 175.5t30 212.5q0 113 -31 213.5t-91.5 177t-151.5 121.5t-214 45q-111 0 -203 -39.5t-135 -128.5h-4v144h-174v-1462zM305 530q0 74 17.5 146t56.5 128t100.5 91t149.5 35 q84 0 146.5 -33t102.5 -88t59 -125.5t19 -144.5q0 -78 -16 -152t-53 -131t-97.5 -92t-150.5 -35t-153.5 34t-103.5 89t-58.5 128t-18.5 150z" />
<glyph unicode="q" horiz-adv-x="1214" d="M74 532q0 -113 30.5 -213t91 -175.5t151.5 -121t214 -45.5q111 0 203 39t135 127h4v-546h174v1462h-174v-141h-4q-29 47 -71 78.5t-89 51t-94 27.5t-88 8q-121 0 -212 -44t-151.5 -118.5t-90 -175t-29.5 -213.5zM258 520q0 78 16.5 151.5t53.5 131t98 92.5t149 35 q90 0 154 -34t103.5 -89t58 -128t18.5 -151q0 -74 -17.5 -145.5t-56 -127.5t-100 -91t-149.5 -35q-84 0 -146.5 33t-102.5 88t-59.5 125.5t-19.5 144.5z" />
<glyph unicode="r" horiz-adv-x="681" d="M125 0h174v471q0 102 20.5 181t65.5 134.5t119 84t178 28.5v184h-17q-131 0 -217 -57q-92 -61 -155 -190h-4v223h-164v-1059z" />
<glyph unicode="s" horiz-adv-x="1024" d="M63 334q4 -98 41 -167t98.5 -111t141.5 -60.5t168 -18.5q80 0 161 15.5t145.5 54.5t104.5 102.5t40 159.5q0 76 -30 127t-78 85t-110.5 54.5t-128.5 34.5q-61 14 -122.5 27.5t-110.5 33t-81 49.5t-32 75q0 41 20.5 66.5t53.5 41t73 21.5t79 6q43 0 85 -9.5t76.5 -30 t57 -54t26.5 -84.5h174q-6 96 -40.5 160.5t-93 102.5t-134.5 53t-166 15q-70 0 -140.5 -17t-126.5 -53t-92 -93.5t-36 -137.5q0 -102 51 -159.5t128 -89t167 -49t167 -39t128 -56.5t51 -102q0 -49 -24.5 -81t-62.5 -48.5t-83 -22.5t-86 -6q-53 0 -103 10.5t-90 34 t-64.5 63.5t-26.5 97h-175z" />
<glyph unicode="t" horiz-adv-x="645" d="M18 905h181v-674q0 -74 14 -118.5t44 -69.5t78 -34t116 -9h133v154h-80q-41 0 -66.5 3t-40 13t-19.5 28.5t-5 49.5v657h211v154h-211v317h-174v-317h-181v-154z" />
<glyph unicode="u" d="M131 362q0 -86 17.5 -156.5t60.5 -121.5t112.5 -79t174.5 -28q117 0 202.5 46.5t141.5 144.5h4v-168h164v1059h-174v-598q0 -72 -19.5 -132.5t-58.5 -105.5t-97.5 -69.5t-138.5 -24.5q-100 0 -157.5 57.5t-57.5 155.5v717h-174v-697z" />
<glyph unicode="v" horiz-adv-x="1024" d="M29 1059l393 -1059h186l387 1059h-182l-289 -883h-4l-297 883h-194z" />
<glyph unicode="w" horiz-adv-x="1552" d="M35 1059l340 -1059h188l213 842h4l215 -842h185l338 1059h-181l-237 -866h-4l-222 866h-190l-213 -866h-4l-240 866h-192z" />
<glyph unicode="x" horiz-adv-x="1060" d="M18 0h211l295 438l295 -438h223l-409 571l364 488h-209l-264 -371l-254 371h-223l369 -502z" />
<glyph unicode="y" horiz-adv-x="1024" d="M16 1059l420 -1053l-71 -178q-25 -47 -58 -71.5t-86 -24.5q-27 0 -52.5 8t-49.5 16v-159q29 -10 59.5 -14.5t61.5 -4.5q59 0 102 15.5t79 49t65.5 87t60.5 131.5l461 1198h-185l-297 -866h-4l-309 866h-197z" />
<glyph unicode="z" horiz-adv-x="983" d="M45 0h893v154h-676l647 786v119h-823v-154h598l-639 -772v-133z" />
<glyph unicode="{" horiz-adv-x="681" d="M98 475q33 0 64 -16.5t54.5 -47t37.5 -75.5t14 -100v-371q0 -66 20.5 -116t52.5 -84t71 -51t77 -17h144v122h-103q-31 0 -49 15.5t-29.5 41t-15.5 57.5t-4 63v372q0 78 -21.5 129.5t-50 83t-58.5 46t-48 16.5v6q18 4 48 20.5t58.5 49t50 83t21.5 121.5v375q0 33 4 64.5 t15.5 56t30 40t48.5 15.5h103v123h-144q-39 0 -77.5 -17.5t-70.5 -51t-52.5 -84t-20.5 -115.5v-373q0 -53 -14 -98t-37.5 -77t-54.5 -49.5t-64 -17.5v-139z" />
<glyph unicode="|" horiz-adv-x="454" d="M158 -436h139v2046h-139v-2046z" />
<glyph unicode="}" horiz-adv-x="681" d="M49 -281v-122h144q39 0 77.5 17t70.5 51t52.5 84t20.5 116v371q0 53 14 97t37.5 75.5t54.5 49t64 17.5v139q-33 0 -64 16.5t-54.5 48.5t-37.5 77t-14 100v373q0 66 -20.5 116t-52.5 83.5t-71 51t-77 17.5h-144v-123h103q31 0 49 -15.5t29.5 -41t15.5 -57t4 -66.5v-371 q0 -78 21.5 -129t50 -82.5t58.5 -46t48 -16.5v-6q-18 -4 -48 -20.5t-58.5 -49.5t-50 -83t-21.5 -122v-372q0 -33 -4 -65t-15.5 -56.5t-30 -40t-48.5 -15.5h-103z" />
<glyph unicode="~" horiz-adv-x="1228" d="M141 469l74 -102q12 27 27.5 54.5t37 50t48 36.5t59.5 14q72 0 129 -25.5t107 -54.5q51 -29 101 -48t107 -19q47 0 85 15.5t69 40t55 56t47 64.5l-73 102q-18 -27 -37 -54.5t-40.5 -50t-47 -36.5t-55.5 -14q-41 0 -96.5 28.5t-112.5 53.5q-59 27 -116.5 46t-111.5 19 q-51 0 -91 -15.5t-71.5 -40t-54 -56t-39.5 -64.5z" />
<glyph unicode="&#xa1;" horiz-adv-x="530" d="M152 831h227v228h-227v-228zM168 45v-448h194v448l-51 637h-92z" />
<glyph unicode="&#xa2;" d="M94 516q0 -113 31 -210t89 -168.5t144 -114t199 -46.5v-213h80v213q96 0 171 35t128 93.5t84 132t39 149.5h-174q-16 -104 -76.5 -176t-171.5 -82v801q98 -4 157.5 -60.5t79.5 -150.5h179q-12 92 -47 160.5t-89.5 112.5t-125 66.5t-154.5 24.5v195h-80v-195 q-115 -8 -202 -56t-145 -125t-87 -176t-29 -210zM279 516q0 76 14 146.5t46 127t85 93.5t133 47v-801q-74 6 -127 41t-87 88t-49 120.5t-15 137.5z" />
<glyph unicode="&#xa3;" d="M96 113l97 -133q47 31 96 50t108 19t111.5 -13t103.5 -30q53 -14 102.5 -26.5t100.5 -12.5q80 0 159 19.5t140 72.5l-88 136q-37 -29 -85 -52.5t-97 -23.5q-47 0 -89 12t-83 25q-41 10 -88 20t-107 10q-61 0 -111.5 -18t-103.5 -41l-4 4q45 37 88 76t76 85t53.5 100 t20.5 124q0 43 -12.5 82t-28.5 72h280v92h-325q-18 37 -37 71.5t-34 71.5t-25.5 79t-10.5 91q0 57 22.5 106.5t62.5 85.5t93.5 56t114.5 20q147 0 221 -97t78 -277h174q4 264 -126 396t-357 132q-94 0 -178 -28.5t-148.5 -82t-102.5 -130t-38 -175.5q0 -98 27.5 -174 t68.5 -145h-119v-92h174q18 -41 35 -92.5t17 -98.5q0 -59 -18.5 -112.5t-50.5 -100.5t-73 -86t-84 -67z" />
<glyph unicode="&#xa4;" d="M51 297l99 -98l112 118q61 -55 140 -82.5t171 -27.5q86 0 165 28.5t139 83.5l114 -118l96 96l-112 115q53 63 79.5 142t26.5 165t-26.5 166t-79.5 137l112 113l-102 104l-117 -115q-55 47 -133 75t-160 28q-86 0 -167.5 -28t-141.5 -77l-114 115l-101 -100l117 -119 q-57 -57 -84 -137t-27 -166t28 -162t79 -137zM231 715q0 76 27 141.5t73 113.5t108 75.5t136 27.5q72 0 132.5 -28.5t104.5 -76.5t69.5 -112.5t25.5 -136.5q0 -74 -25.5 -139.5t-69.5 -113.5t-105.5 -77t-133.5 -29t-134 28t-108 75t-73 112.5t-27 139.5z" />
<glyph unicode="&#xa5;" d="M0 1462l375 -706h-189v-123h252l37 -68v-86h-289v-123h289v-356h195v356h295v123h-295v86l37 68h258v123h-191l365 706h-213l-346 -723l-357 723h-223z" />
<glyph unicode="&#xa6;" horiz-adv-x="454" d="M158 -180h139v510h-139v-510zM158 842h139v512h-139v-512z" />
<glyph unicode="&#xa7;" d="M72 666q0 -84 30.5 -147.5t80.5 -115t114.5 -91.5t130.5 -74q68 -37 131.5 -72t113.5 -72t80.5 -80t30.5 -94q0 -43 -18 -74.5t-47 -53t-67 -32t-74 -10.5q-104 0 -168 64.5t-66 169.5h-174q12 -180 119.5 -283.5t292.5 -103.5q84 0 153.5 23.5t120.5 66.5t80 103t29 134 q0 154 -121 244q92 37 152.5 118t60.5 183q0 76 -30 134.5t-77 105.5t-108.5 84.5t-125 72.5t-125 68t-109.5 68.5t-76.5 75.5t-28.5 89q0 92 56 134t138 42q98 0 151.5 -65.5t55.5 -159.5h174q-4 193 -106.5 286t-270.5 93q-70 0 -138 -21.5t-121.5 -64.5t-86 -104.5 t-32.5 -141.5q0 -66 24.5 -118t69.5 -99q-45 -12 -85 -39.5t-70 -65.5t-47 -84t-17 -93zM240 674q0 66 45 116t104 70q70 -47 140.5 -89t142.5 -85q33 -20 70.5 -44t70.5 -53.5t54.5 -65.5t21.5 -79q0 -70 -44 -117.5t-104 -72.5q-70 47 -141.5 89t-144.5 81 q-37 23 -76 46.5t-69.5 52t-50 65.5t-19.5 86z" />
<glyph unicode="&#xa8;" horiz-adv-x="454" d="M-55 1212h182v213h-182v-213zM328 1212h184v213h-184v-213z" />
<glyph unicode="&#xa9;" horiz-adv-x="1638" d="M49 735q0 -166 61.5 -306t167 -243.5t246 -161t297.5 -57.5q158 0 297 57.5t243.5 161t166 243.5t61.5 306q0 162 -61.5 301.5t-166 241.5t-243.5 160.5t-297 58.5t-298 -58.5t-245.5 -160.5t-167 -241.5t-61.5 -301.5zM188 735q0 137 48.5 256t133.5 206t200.5 137 t250.5 50q133 0 248 -50t200 -137t133 -206t48 -256q0 -141 -48 -261t-133 -208t-200 -138t-248 -50q-135 0 -250.5 50t-200.5 138t-133.5 208t-48.5 261zM391 731q0 -100 32 -186t91 -148.5t143 -98.5t189 -36q141 0 244.5 86t136.5 236h-131q-14 -92 -80 -150.5 t-170 -58.5q-74 0 -132.5 29.5t-99.5 78.5t-62.5 115t-21.5 137q0 74 20.5 137.5t59.5 111.5t97.5 74.5t134.5 26.5q104 0 170.5 -56t83.5 -142h129q-25 154 -131.5 232.5t-253.5 78.5q-104 0 -188.5 -35t-141.5 -96t-88 -147t-31 -189z" />
<glyph unicode="&#xaa;" horiz-adv-x="774" d="M51 961q0 -47 19.5 -82t52.5 -57.5t76 -33t92 -10.5q152 0 239 94q6 -94 105 -94q27 0 47 4t41 13v90q-12 -4 -23 -4h-22q-16 0 -22.5 14t-6.5 51v328q0 55 -24.5 90t-62.5 54.5t-85 26.5t-94 7q-57 0 -111.5 -11t-95.5 -38t-66.5 -68t-27.5 -100h123q4 66 50 90.5 t120 24.5q29 0 57.5 -3.5t51 -13.5t35.5 -29.5t13 -54.5q0 -20 -10 -33.5t-35.5 -22.5t-71.5 -15.5t-118 -14.5q-45 -4 -89 -16t-79 -36t-56.5 -60.5t-21.5 -89.5zM190 965q0 53 38 74.5t94 31.5q57 10 114.5 18.5t89.5 28.5v-96q0 -23 -11 -48.5t-35.5 -46t-65 -33.5 t-97.5 -13q-51 0 -89 15t-38 69z" />
<glyph unicode="&#xab;" horiz-adv-x="948" d="M102 479l312 -246v177l-205 159l205 160v176l-312 -246v-180zM504 479l311 -246v177l-205 159l205 160v176l-311 -246v-180z" />
<glyph unicode="&#xac;" horiz-adv-x="1228" d="M98 655h893v-432h139v572h-1032v-140z" />
<glyph unicode="&#xad;" horiz-adv-x="796" d="M102 487h592v164h-592v-164z" />
<glyph unicode="&#xae;" horiz-adv-x="1638" d="M49 735q0 -166 61.5 -306t167 -243.5t246 -161t297.5 -57.5q158 0 297 57.5t243.5 161t166 243.5t61.5 306q0 162 -61.5 301.5t-166 241.5t-243.5 160.5t-297 58.5t-298 -58.5t-245.5 -160.5t-167 -241.5t-61.5 -301.5zM188 735q0 137 48.5 256t133.5 206t200.5 137 t250.5 50q133 0 248 -50t200 -137t133 -206t48 -256q0 -141 -48 -261t-133 -208t-200 -138t-248 -50q-135 0 -250.5 50t-200.5 138t-133.5 208t-48.5 261zM522 285h140v385h147l244 -385h149l-256 395q100 10 168 66.5t68 177.5q0 129 -77 192.5t-237 63.5h-346v-895z M662 782v285h184q35 0 70.5 -5t63.5 -19.5t45 -41t17 -71.5q0 -53 -19 -83t-52 -44.5t-75 -17.5t-89 -3h-145z" />
<glyph unicode="&#xaf;" horiz-adv-x="454" d="M-119 1270h697v112h-697v-112z" />
<glyph unicode="&#xb0;" horiz-adv-x="819" d="M115 1157q0 -61 22.5 -115.5t62.5 -94.5t94 -62.5t116 -22.5q61 0 114.5 22.5t93 62.5t63.5 94.5t24 115.5t-24 114.5t-63.5 93.5t-93 63.5t-114.5 23.5t-115.5 -23.5t-94.5 -63.5t-62.5 -93.5t-22.5 -114.5zM217 1157q0 37 13.5 71t38 61.5t60.5 44t81 16.5t80.5 -16.5 t60 -44t38 -61.5t13.5 -71t-13.5 -70.5t-38 -61.5t-60 -44t-80.5 -16t-81 16t-60.5 44t-38 61.5t-13.5 70.5z" />
<glyph unicode="&#xb1;" horiz-adv-x="1228" d="M98 0h1032v139h-1032v-139zM98 555h447v-342h139v342h446v139h-446v340h-139v-340h-447v-139z" />
<glyph unicode="&#xb2;" horiz-adv-x="681" d="M29 573h620v113h-481q8 33 33.5 59.5t61.5 51t80 49t87 51.5q43 25 85 53.5t74 63.5t52.5 79t20.5 101q0 61 -24 109.5t-66 81t-97 50t-117 17.5q-143 0 -228 -87t-85 -228h139q0 80 38 141t130 61q72 0 121 -38.5t49 -104.5q0 -45 -14 -80t-44 -64.5t-75 -58t-104 -63.5 q-49 -29 -94.5 -59.5t-80 -70.5t-56 -94.5t-25.5 -132.5z" />
<glyph unicode="&#xb3;" horiz-adv-x="681" d="M8 848q0 -72 25.5 -126t69.5 -90t104.5 -54.5t128.5 -18.5q66 0 125 16.5t105 49t74 83t28 117.5q0 78 -43 135.5t-136 73.5v4q57 23 98.5 69t41.5 105t-22.5 104.5t-62.5 75t-94.5 45t-117.5 15.5q-137 0 -216 -77t-87 -212h139q0 76 39 126t125 50q68 0 112.5 -32.5 t44.5 -94.5q0 -72 -51 -102.5t-119 -30.5h-49v-102h68q37 0 70.5 -8t60.5 -27.5t43 -49.5t16 -73q0 -70 -57 -108.5t-135 -38.5q-184 0 -189 176h-139z" />
<glyph unicode="&#xb4;" horiz-adv-x="454" d="M102 1204h131l269 293h-223z" />
<glyph unicode="&#xb5;" d="M131 -403h174v456h4q27 -41 74 -58.5t113 -17.5q117 0 202.5 46.5t141.5 144.5h4v-168h164v1059h-174v-598q0 -72 -19.5 -132.5t-58.5 -105.5t-97.5 -69.5t-138.5 -24.5q-100 0 -157.5 57.5t-57.5 155.5v717h-174v-1462z" />
<glyph unicode="&#xb6;" horiz-adv-x="1228" d="M98 1040q0 -80 32 -149.5t88 -120.5t135 -81t173 -30v-974h140v1665h249v-1665h140v1777h-490q-217 0 -342 -109.5t-125 -312.5z" />
<glyph unicode="&#xb7;" horiz-adv-x="569" d="M154 637q0 -53 39.5 -92t93.5 -39q51 0 90 41t39 90q0 53 -39 92t-92 39t-92 -39t-39 -92z" />
<glyph unicode="&#xb8;" horiz-adv-x="454" d="M10 -389q47 -16 93.5 -27.5t95.5 -11.5q43 0 88 9t82 30.5t60.5 56.5t23.5 86q0 76 -53.5 113t-118.5 37q-47 0 -68 -15l-4 5l86 106h-86l-125 -158l35 -57q23 8 41 12t43 4q41 0 68.5 -17t27.5 -46q0 -18 -12.5 -29.5t-30.5 -19.5t-40.5 -11.5t-43.5 -3.5 q-33 0 -66.5 8.5t-58.5 18.5z" />
<glyph unicode="&#xb9;" horiz-adv-x="681" d="M135 1204h236v-631h139v879h-102q-20 -84 -96 -114.5t-177 -30.5v-103z" />
<glyph unicode="&#xba;" horiz-adv-x="786" d="M51 1112q0 -74 23.5 -134t67.5 -105.5t107.5 -70t145.5 -24.5q168 0 254 93.5t86 240.5q0 72 -22.5 134.5t-65.5 108.5t-106.5 71.5t-147.5 25.5q-82 0 -146.5 -26.5t-107.5 -72.5t-65.5 -107.5t-22.5 -133.5zM190 1112q0 123 58.5 180.5t144.5 57.5q33 0 69 -9.5 t65.5 -36t49 -73.5t19.5 -121q0 -45 -11.5 -87t-35 -73.5t-61 -50t-93.5 -18.5q-55 0 -94 18.5t-63.5 51t-36 74.5t-11.5 87z" />
<glyph unicode="&#xbb;" horiz-adv-x="948" d="M133 233l311 246v180l-311 246v-176l205 -160l-205 -159v-177zM535 233l311 246v180l-311 246v-176l204 -160l-204 -159v-177z" />
<glyph unicode="&#xbc;" horiz-adv-x="1708" d="M74 1204h235v-631h140v879h-103q-20 -86 -96 -115.5t-176 -29.5v-103zM307 -55h131l891 1540h-131zM946 197h408v-197h127v197h123v112h-123v570h-105l-430 -564v-118zM1047 309l303 396h4v-396h-307z" />
<glyph unicode="&#xbd;" horiz-adv-x="1708" d="M74 1204h235v-631h140v879h-103q-20 -86 -96 -115.5t-176 -29.5v-103zM276 -55h132l890 1540h-131zM1012 0h620v113h-481q8 33 33.5 59.5t61.5 51t80 49t87 51.5q43 25 85 53.5t74 63t52.5 78.5t20.5 102q0 61 -24 109t-66 81t-97 50.5t-117 17.5q-143 0 -228 -87.5 t-85 -228.5h139q0 80 38 141.5t130 61.5q72 0 121 -39t49 -104q0 -45 -14 -80t-44 -64.5t-75 -58.5t-104 -64q-49 -29 -94.5 -59.5t-80 -70.5t-56 -94t-25.5 -132z" />
<glyph unicode="&#xbe;" horiz-adv-x="1708" d="M100 848q0 -72 26 -126t70 -90t104 -54.5t128 -18.5q66 0 125 16.5t105.5 49t74 83t27.5 117.5q0 78 -43 135.5t-135 73.5v4q57 23 98 69t41 105t-22.5 104.5t-62.5 75t-94.5 45t-117.5 15.5q-137 0 -216 -77t-87 -212h139q0 76 39 126t125 50q68 0 113 -32.5t45 -94.5 q0 -72 -51.5 -102.5t-118.5 -30.5h-50v-102h68q37 0 71 -8t60.5 -27.5t43 -49.5t16.5 -73q0 -70 -57.5 -108.5t-135.5 -38.5q-184 0 -188 176h-140zM440 -55h131l891 1540h-131zM981 197h408v-197h127v197h122v112h-122v570h-105l-430 -564v-118zM1083 301l303 395h5v-395 h-308z" />
<glyph unicode="&#xbf;" d="M139 -18q0 -98 32 -174t89 -128.5t137 -80t174 -27.5q106 0 192.5 38t147 103.5t91 154.5t28.5 193h-174q0 -70 -16.5 -131t-52 -106t-89 -71.5t-127.5 -26.5q-111 0 -175 63.5t-72 175.5q-4 74 18.5 127t60 97t81.5 84t84 87.5t68 108.5t32 145v80h-174v-63 q0 -51 -15.5 -94t-41 -79t-57.5 -68t-65 -62q-35 -33 -66.5 -68t-56 -76t-39 -91t-14.5 -111zM463 831h227v228h-227v-228z" />
<glyph unicode="&#xc0;" horiz-adv-x="1327" d="M-12 0h198l164 440h619l159 -440h215l-571 1462h-215zM389 1860l268 -293h131l-176 293h-223zM412 604l247 682h5l243 -682h-495z" />
<glyph unicode="&#xc1;" horiz-adv-x="1327" d="M-12 0h198l164 440h619l159 -440h215l-571 1462h-215zM412 604l247 682h5l243 -682h-495zM539 1567h131l268 293h-223z" />
<glyph unicode="&#xc2;" horiz-adv-x="1327" d="M-12 0h198l164 440h619l159 -440h215l-571 1462h-215zM356 1567h158l143 196l142 -196h172l-213 293h-191zM412 604l247 682h5l243 -682h-495z" />
<glyph unicode="&#xc3;" horiz-adv-x="1327" d="M-12 0h198l164 440h619l159 -440h215l-571 1462h-215zM317 1585h107q-4 39 30.5 62.5t67.5 23.5q29 0 65 -12t72 -27q37 -16 73 -28.5t63 -12.5q59 0 97 17.5t64 46.5q52 72 64 164h-107q-10 -31 -31.5 -60.5t-62.5 -29.5q-33 0 -66.5 13t-68.5 28.5t-73 27.5t-79 12 q-49 0 -83.5 -18t-59 -49t-42 -72t-30.5 -86zM412 604l247 682h5l243 -682h-495z" />
<glyph unicode="&#xc4;" horiz-adv-x="1327" d="M-12 0h198l164 440h619l159 -440h215l-571 1462h-215zM379 1575h184v213h-184v-213zM412 604l247 682h5l243 -682h-495zM764 1575h184v213h-184v-213z" />
<glyph unicode="&#xc5;" horiz-adv-x="1327" d="M-12 0h198l164 440h619l159 -440h215l-571 1462h-215zM412 604l247 682h5l243 -682h-495zM432 1718q0 -47 18.5 -89t50 -73.5t73.5 -50t90 -18.5q47 0 89 18.5t73.5 50t50 73.5t18.5 89t-18.5 89t-50 74t-73.5 50.5t-89 18.5t-89.5 -18.5t-74 -50.5t-50 -74t-18.5 -89z M524 1718q0 59 40 99.5t100 40.5q59 0 99 -40t40 -100q0 -59 -40 -99t-99 -40t-99.5 40t-40.5 99z" />
<glyph unicode="&#xc6;" horiz-adv-x="1896" d="M-12 0h217l209 426h504v-426h915v164h-731v506h676v164h-676v464h719v164h-1096zM489 590l345 708h84v-708h-429z" />
<glyph unicode="&#xc7;" horiz-adv-x="1478" d="M88 727q0 -154 38 -286t112.5 -232t189.5 -162.5t268 -75.5l-100 -129l35 -57q23 8 41 12t43 4q41 0 68.5 -17t27.5 -46q0 -18 -12.5 -29.5t-30.5 -19.5t-40.5 -11.5t-43.5 -3.5q-33 0 -66.5 8.5t-58.5 18.5l-37 -90q47 -16 93.5 -27.5t95.5 -11.5q43 0 88 9t82 30.5 t60.5 56.5t23.5 86q0 76 -53.5 113t-118.5 37q-47 0 -68 -15l-4 5l59 75q270 4 429 158t188 424h-195q-6 -90 -36.5 -168t-85 -134t-129 -88t-171.5 -32q-131 0 -225 49t-154.5 132t-89 194.5t-28.5 236.5q0 115 28.5 221.5t89 189.5t153.5 132t224 49q154 0 265.5 -77.5 t144.5 -233.5h194q-16 117 -69 206t-133 148.5t-182.5 90t-217.5 30.5q-168 0 -298 -60.5t-217 -165t-132 -244.5t-45 -300z" />
<glyph unicode="&#xc8;" horiz-adv-x="1251" d="M160 0h1016v164h-822v506h760v164h-760v464h815v164h-1009v-1462zM352 1860l269 -293h131l-177 293h-223z" />
<glyph unicode="&#xc9;" horiz-adv-x="1251" d="M160 0h1016v164h-822v506h760v164h-760v464h815v164h-1009v-1462zM502 1567h131l268 293h-223z" />
<glyph unicode="&#xca;" horiz-adv-x="1251" d="M160 0h1016v164h-822v506h760v164h-760v464h815v164h-1009v-1462zM319 1567h158l144 196l141 -196h172l-213 293h-191z" />
<glyph unicode="&#xcb;" horiz-adv-x="1251" d="M160 0h1016v164h-822v506h760v164h-760v464h815v164h-1009v-1462zM342 1575h184v213h-184v-213zM727 1575h184v213h-184v-213z" />
<glyph unicode="&#xcc;" horiz-adv-x="530" d="M-6 1860l266 -293h131l-176 293h-221zM168 0h194v1462h-194v-1462z" />
<glyph unicode="&#xcd;" horiz-adv-x="530" d="M141 1567h131l269 293h-224zM168 0h194v1462h-194v-1462z" />
<glyph unicode="&#xce;" horiz-adv-x="530" d="M-39 1567h156l143 196l141 -196h172l-213 293h-190zM168 0h194v1462h-194v-1462z" />
<glyph unicode="&#xcf;" horiz-adv-x="530" d="M-16 1575h182v213h-182v-213zM168 0h194v1462h-194v-1462zM367 1575h184v213h-184v-213z" />
<glyph unicode="&#xd0;" horiz-adv-x="1441" d="M16 694h144v-694h502q182 0 315 51t219 148.5t127 240t41 326.5q0 352 -182.5 524t-519.5 172h-502v-628h-144v-140zM354 164v530h439v140h-439v464h328q135 0 227 -37.5t150.5 -110.5t84 -176.5t25.5 -234.5q0 -135 -27.5 -230t-70.5 -158.5t-97 -100.5t-109.5 -56.5 t-104.5 -24.5t-82 -5h-324z" />
<glyph unicode="&#xd1;" horiz-adv-x="1478" d="M158 0h184v1174h4l764 -1174h213v1462h-184v-1186h-4l-770 1186h-207v-1462zM393 1585h107q-4 39 30.5 62.5t67.5 23.5q29 0 64.5 -12t72.5 -27q37 -16 73 -28.5t62 -12.5q59 0 97.5 17.5t64.5 46.5q52 72 64 164h-107q-10 -31 -31.5 -60.5t-62.5 -29.5q-33 0 -66.5 13 t-68.5 28.5t-73 27.5t-79 12q-49 0 -84 -18t-59.5 -49t-41.5 -72t-30 -86z" />
<glyph unicode="&#xd2;" horiz-adv-x="1556" d="M78 731q0 -150 44 -288t132 -244.5t219 -169t305 -62.5t305 62.5t219.5 169t132.5 245t44 287.5q0 150 -44 288t-132.5 244.5t-219.5 170t-305 63.5t-305 -63.5t-219 -170t-132 -244.5t-44 -288zM272 731q0 111 29 218.5t90.5 193.5t157.5 138t229 52t229.5 -52t158 -138 t90 -193.5t28.5 -218.5t-28.5 -218t-90 -193.5t-158 -138.5t-229.5 -52t-229 52t-157.5 138.5t-90.5 193.5t-29 218zM504 1860l268 -293h131l-176 293h-223z" />
<glyph unicode="&#xd3;" horiz-adv-x="1556" d="M78 731q0 -150 44 -288t132 -244.5t219 -169t305 -62.5t305 62.5t219.5 169t132.5 245t44 287.5q0 150 -44 288t-132.5 244.5t-219.5 170t-305 63.5t-305 -63.5t-219 -170t-132 -244.5t-44 -288zM272 731q0 111 29 218.5t90.5 193.5t157.5 138t229 52t229.5 -52t158 -138 t90 -193.5t28.5 -218.5t-28.5 -218t-90 -193.5t-158 -138.5t-229.5 -52t-229 52t-157.5 138.5t-90.5 193.5t-29 218zM653 1567h131l269 293h-224z" />
<glyph unicode="&#xd4;" horiz-adv-x="1556" d="M78 731q0 -150 44 -288t132 -244.5t219 -169t305 -62.5t305 62.5t219.5 169t132.5 245t44 287.5q0 150 -44 288t-132.5 244.5t-219.5 170t-305 63.5t-305 -63.5t-219 -170t-132 -244.5t-44 -288zM272 731q0 111 29 218.5t90.5 193.5t157.5 138t229 52t229.5 -52t158 -138 t90 -193.5t28.5 -218.5t-28.5 -218t-90 -193.5t-158 -138.5t-229.5 -52t-229 52t-157.5 138.5t-90.5 193.5t-29 218zM471 1567h158l143 196l141 -196h172l-213 293h-190z" />
<glyph unicode="&#xd5;" horiz-adv-x="1556" d="M78 731q0 -150 44 -288t132 -244.5t219 -169t305 -62.5t305 62.5t219.5 169t132.5 245t44 287.5q0 150 -44 288t-132.5 244.5t-219.5 170t-305 63.5t-305 -63.5t-219 -170t-132 -244.5t-44 -288zM272 731q0 111 29 218.5t90.5 193.5t157.5 138t229 52t229.5 -52t158 -138 t90 -193.5t28.5 -218.5t-28.5 -218t-90 -193.5t-158 -138.5t-229.5 -52t-229 52t-157.5 138.5t-90.5 193.5t-29 218zM432 1585h107q-4 39 30.5 62.5t67.5 23.5q29 0 64.5 -12t72.5 -27q37 -16 73 -28.5t62 -12.5q59 0 97 17.5t65 46.5q52 72 64 164h-107 q-10 -31 -31.5 -60.5t-62.5 -29.5q-33 0 -66.5 13t-68.5 28.5t-73 27.5t-79 12q-49 0 -84 -18t-59.5 -49t-42 -72t-29.5 -86z" />
<glyph unicode="&#xd6;" horiz-adv-x="1556" d="M78 731q0 -150 44 -288t132 -244.5t219 -169t305 -62.5t305 62.5t219.5 169t132.5 245t44 287.5q0 150 -44 288t-132.5 244.5t-219.5 170t-305 63.5t-305 -63.5t-219 -170t-132 -244.5t-44 -288zM272 731q0 111 29 218.5t90.5 193.5t157.5 138t229 52t229.5 -52t158 -138 t90 -193.5t28.5 -218.5t-28.5 -218t-90 -193.5t-158 -138.5t-229.5 -52t-229 52t-157.5 138.5t-90.5 193.5t-29 218zM494 1575h184v213h-184v-213zM879 1575h184v213h-184v-213z" />
<glyph unicode="&#xd7;" horiz-adv-x="1228" d="M145 147l99 -98l372 373l371 -373l98 98l-370 373l368 369l-98 98l-369 -369l-370 369l-99 -98l371 -369z" />
<glyph unicode="&#xd8;" horiz-adv-x="1556" d="M76 20l67 -59l166 180q86 -82 203 -128t266 -46q174 0 305 62.5t219.5 169t132.5 245t44 287.5q0 147 -40 279.5t-126 238.5l168 185l-66 61l-162 -178q-86 86 -203.5 133t-271.5 47q-174 0 -305 -63.5t-219 -170t-132 -244.5t-44 -288q0 -147 42 -282.5t128 -239.5z M272 731q0 111 29 218.5t90.5 193.5t157.5 138t229 52q117 0 205 -40.5t147 -110.5l-755 -834q-53 82 -78 180.5t-25 202.5zM430 274l756 834q51 -80 74.5 -178.5t23.5 -198.5q0 -111 -28.5 -218t-90 -193.5t-158 -138.5t-229.5 -52q-117 0 -203 38.5t-145 106.5z" />
<glyph unicode="&#xd9;" horiz-adv-x="1478" d="M152 528q0 -293 158.5 -427t441.5 -134q276 0 425.5 140t149.5 421v934h-194v-934q0 -197 -97.5 -298t-283.5 -101q-197 0 -301.5 101.5t-104.5 297.5v934h-194v-934zM465 1860l268 -293h131l-176 293h-223z" />
<glyph unicode="&#xda;" horiz-adv-x="1478" d="M152 528q0 -293 158.5 -427t441.5 -134q276 0 425.5 140t149.5 421v934h-194v-934q0 -197 -97.5 -298t-283.5 -101q-197 0 -301.5 101.5t-104.5 297.5v934h-194v-934zM614 1567h131l269 293h-223z" />
<glyph unicode="&#xdb;" horiz-adv-x="1478" d="M152 528q0 -293 158.5 -427t441.5 -134q276 0 425.5 140t149.5 421v934h-194v-934q0 -197 -97.5 -298t-283.5 -101q-197 0 -301.5 101.5t-104.5 297.5v934h-194v-934zM432 1567h158l143 196l141 -196h173l-213 293h-191z" />
<glyph unicode="&#xdc;" horiz-adv-x="1478" d="M152 528q0 -293 158.5 -427t441.5 -134q276 0 425.5 140t149.5 421v934h-194v-934q0 -197 -97.5 -298t-283.5 -101q-197 0 -301.5 101.5t-104.5 297.5v934h-194v-934zM455 1575h184v213h-184v-213zM840 1575h184v213h-184v-213z" />
<glyph unicode="&#xdd;" horiz-adv-x="1327" d="M4 1462l565 -864v-598h195v598l559 864h-221l-428 -696l-438 696h-232zM539 1567h131l268 293h-223z" />
<glyph unicode="&#xde;" horiz-adv-x="1327" d="M160 0h194v365h447q221 -2 334.5 111.5t113.5 318.5t-113.5 319.5t-334.5 114.5h-447v233h-194v-1462zM354 528v537h381q166 0 243 -67.5t77 -202.5q0 -131 -77 -200t-243 -67h-381z" />
<glyph unicode="&#xdf;" d="M131 0h174v1057q0 86 18.5 141t50.5 87t77 45t98 13q49 0 90 -18t71.5 -49t48 -73t17.5 -91q0 -70 -25.5 -118t-68.5 -75.5t-99.5 -38t-117.5 -6.5v-139q86 0 155.5 -10t118.5 -43t76 -93.5t27 -160.5q0 -135 -83 -217t-224 -82q-16 0 -35 1t-35 5v-149q41 -8 88 -9 q104 0 191 34t149.5 96.5t97.5 149.5t35 194q0 68 -17.5 130t-52 111t-87 83t-121.5 42v4q117 37 165 119t48 199q0 90 -38 156.5t-98.5 111.5t-136.5 67.5t-151 22.5q-92 0 -167 -29.5t-128.5 -84t-82 -129.5t-28.5 -167v-1087z" />
<glyph unicode="&#xe0;" horiz-adv-x="1099" d="M74 272q0 -80 27.5 -136t75.5 -92t111.5 -51.5t135.5 -15.5q111 0 206 38t167 124q0 -86 40 -124t107 -38q80 0 125 27v135q-31 -10 -53 -10q-41 0 -48 28.5t-7 90.5v545q0 92 -35 149t-92.5 89t-128 42t-142.5 10q-88 0 -168 -18t-141 -60t-98 -110t-41 -166h174 q6 117 79.5 159t184.5 42q41 0 83 -6t75.5 -24.5t55 -53.5t21.5 -92q0 -49 -28.5 -75t-77.5 -39t-113.5 -20.5t-136.5 -21.5q-68 -12 -132 -30.5t-114.5 -54.5t-81 -93.5t-30.5 -147.5zM258 285q0 66 29.5 103.5t77 58t106.5 29.5t117.5 16.5t111.5 18.5t86 36v-178 q0 -37 -18 -79t-57 -78t-100.5 -59.5t-147.5 -23.5q-39 0 -77 8t-65.5 26.5t-45 48.5t-17.5 73zM276 1497l269 -293h131l-176 293h-224z" />
<glyph unicode="&#xe1;" horiz-adv-x="1099" d="M74 272q0 -80 27.5 -136t75.5 -92t111.5 -51.5t135.5 -15.5q111 0 206 38t167 124q0 -86 40 -124t107 -38q80 0 125 27v135q-31 -10 -53 -10q-41 0 -48 28.5t-7 90.5v545q0 92 -35 149t-92.5 89t-128 42t-142.5 10q-88 0 -168 -18t-141 -60t-98 -110t-41 -166h174 q6 117 79.5 159t184.5 42q41 0 83 -6t75.5 -24.5t55 -53.5t21.5 -92q0 -49 -28.5 -75t-77.5 -39t-113.5 -20.5t-136.5 -21.5q-68 -12 -132 -30.5t-114.5 -54.5t-81 -93.5t-30.5 -147.5zM258 285q0 66 29.5 103.5t77 58t106.5 29.5t117.5 16.5t111.5 18.5t86 36v-178 q0 -37 -18 -79t-57 -78t-100.5 -59.5t-147.5 -23.5q-39 0 -77 8t-65.5 26.5t-45 48.5t-17.5 73zM426 1204h131l268 293h-223z" />
<glyph unicode="&#xe2;" horiz-adv-x="1099" d="M74 272q0 -80 27.5 -136t75.5 -92t111.5 -51.5t135.5 -15.5q111 0 206 38t167 124q0 -86 40 -124t107 -38q80 0 125 27v135q-31 -10 -53 -10q-41 0 -48 28.5t-7 90.5v545q0 92 -35 149t-92.5 89t-128 42t-142.5 10q-88 0 -168 -18t-141 -60t-98 -110t-41 -166h174 q6 117 79.5 159t184.5 42q41 0 83 -6t75.5 -24.5t55 -53.5t21.5 -92q0 -49 -28.5 -75t-77.5 -39t-113.5 -20.5t-136.5 -21.5q-68 -12 -132 -30.5t-114.5 -54.5t-81 -93.5t-30.5 -147.5zM244 1204h157l144 197l141 -197h172l-213 293h-190zM258 285q0 66 29.5 103.5t77 58 t106.5 29.5t117.5 16.5t111.5 18.5t86 36v-178q0 -37 -18 -79t-57 -78t-100.5 -59.5t-147.5 -23.5q-39 0 -77 8t-65.5 26.5t-45 48.5t-17.5 73z" />
<glyph unicode="&#xe3;" horiz-adv-x="1099" d="M74 272q0 -80 27.5 -136t75.5 -92t111.5 -51.5t135.5 -15.5q111 0 206 38t167 124q0 -86 40 -124t107 -38q80 0 125 27v135q-31 -10 -53 -10q-41 0 -48 28.5t-7 90.5v545q0 92 -35 149t-92.5 89t-128 42t-142.5 10q-88 0 -168 -18t-141 -60t-98 -110t-41 -166h174 q6 117 79.5 159t184.5 42q41 0 83 -6t75.5 -24.5t55 -53.5t21.5 -92q0 -49 -28.5 -75t-77.5 -39t-113.5 -20.5t-136.5 -21.5q-68 -12 -132 -30.5t-114.5 -54.5t-81 -93.5t-30.5 -147.5zM205 1223h106q-4 39 31 62.5t68 23.5q29 0 64.5 -12.5t72.5 -26.5q37 -16 72.5 -28.5 t62.5 -12.5q59 0 97 17.5t65 45.5q51 72 63 164h-106q-10 -31 -31.5 -60.5t-62.5 -29.5q-33 0 -67 13.5t-68.5 28.5t-72.5 27.5t-79 12.5q-49 0 -84 -18.5t-59.5 -49t-42 -71.5t-29.5 -86zM258 285q0 66 29.5 103.5t77 58t106.5 29.5t117.5 16.5t111.5 18.5t86 36v-178 q0 -37 -18 -79t-57 -78t-100.5 -59.5t-147.5 -23.5q-39 0 -77 8t-65.5 26.5t-45 48.5t-17.5 73z" />
<glyph unicode="&#xe4;" horiz-adv-x="1099" d="M74 272q0 -80 27.5 -136t75.5 -92t111.5 -51.5t135.5 -15.5q111 0 206 38t167 124q0 -86 40 -124t107 -38q80 0 125 27v135q-31 -10 -53 -10q-41 0 -48 28.5t-7 90.5v545q0 92 -35 149t-92.5 89t-128 42t-142.5 10q-88 0 -168 -18t-141 -60t-98 -110t-41 -166h174 q6 117 79.5 159t184.5 42q41 0 83 -6t75.5 -24.5t55 -53.5t21.5 -92q0 -49 -28.5 -75t-77.5 -39t-113.5 -20.5t-136.5 -21.5q-68 -12 -132 -30.5t-114.5 -54.5t-81 -93.5t-30.5 -147.5zM258 285q0 66 29.5 103.5t77 58t106.5 29.5t117.5 16.5t111.5 18.5t86 36v-178 q0 -37 -18 -79t-57 -78t-100.5 -59.5t-147.5 -23.5q-39 0 -77 8t-65.5 26.5t-45 48.5t-17.5 73zM266 1212h185v213h-185v-213zM651 1212h185v213h-185v-213z" />
<glyph unicode="&#xe5;" horiz-adv-x="1099" d="M74 272q0 -80 27.5 -136t75.5 -92t111.5 -51.5t135.5 -15.5q111 0 206 38t167 124q0 -86 40 -124t107 -38q80 0 125 27v135q-31 -10 -53 -10q-41 0 -48 28.5t-7 90.5v545q0 92 -35 149t-92.5 89t-128 42t-142.5 10q-88 0 -168 -18t-141 -60t-98 -110t-41 -166h174 q6 117 79.5 159t184.5 42q41 0 83 -6t75.5 -24.5t55 -53.5t21.5 -92q0 -49 -28.5 -75t-77.5 -39t-113.5 -20.5t-136.5 -21.5q-68 -12 -132 -30.5t-114.5 -54.5t-81 -93.5t-30.5 -147.5zM258 285q0 66 29.5 103.5t77 58t106.5 29.5t117.5 16.5t111.5 18.5t86 36v-178 q0 -37 -18 -79t-57 -78t-100.5 -59.5t-147.5 -23.5q-39 0 -77 8t-65.5 26.5t-45 48.5t-17.5 73zM319 1356q0 -47 18.5 -89t50.5 -74t74 -50.5t89 -18.5t89 18.5t73.5 50.5t50 74t18.5 89t-18.5 89t-50 73.5t-73.5 50t-89 18.5t-89 -18.5t-74 -50t-50.5 -73.5t-18.5 -89z M412 1356q0 59 40 99t99 40t99 -40t40 -99t-40 -99t-99 -40t-99 40t-40 99z" />
<glyph unicode="&#xe6;" horiz-adv-x="1781" d="M74 272q0 -80 27.5 -136t75.5 -92t113.5 -51.5t141.5 -15.5q147 0 267 48.5t180 156.5q27 -59 66.5 -98t89.5 -62.5t107.5 -34t119.5 -10.5q180 0 299.5 91.5t158.5 265.5h-178q-25 -104 -97.5 -154.5t-170.5 -50.5q-80 0 -140.5 27.5t-99.5 76t-58.5 111.5t-19.5 133 h777q0 123 -22.5 233.5t-78 193.5t-146.5 131t-231 48q-96 0 -190 -35.5t-147 -117.5q-25 49 -66 79.5t-90 47t-100.5 21.5t-98.5 5q-88 0 -168 -18t-141 -60t-98 -110t-41 -166h174q6 117 79.5 159t184.5 42q43 0 86 -5t77 -22.5t55.5 -50.5t21.5 -86q0 -47 -20.5 -72.5 t-63.5 -41t-112 -26t-165 -28.5q-68 -12 -132 -30.5t-114.5 -54.5t-81 -93.5t-30.5 -147.5zM258 285q0 49 17.5 81.5t46 54t67.5 34t82 20.5q41 8 87 14.5t89 13.5t81 17t65 27v-178q0 -37 -19.5 -79t-59.5 -78t-102.5 -59.5t-148.5 -23.5q-39 0 -77 8t-65.5 26.5t-45 48.5 t-17.5 73zM956 631q0 66 20.5 120t59.5 94t94.5 62.5t124.5 22.5q70 0 124.5 -23.5t91 -63.5t56 -95.5t21.5 -116.5h-592z" />
<glyph unicode="&#xe7;" horiz-adv-x="1099" d="M74 516q0 -113 28.5 -207t84 -163.5t138.5 -112.5t191 -51l-108 -140l34 -57q23 8 41.5 12t42.5 4q41 0 69 -17t28 -46q0 -18 -12.5 -29.5t-31 -19.5t-41 -11.5t-42.5 -3.5q-33 0 -67 8.5t-58 18.5l-37 -90q47 -16 93 -27.5t95 -11.5q43 0 88 9t82 30.5t60.5 56.5 t23.5 86q0 76 -53 113t-119 37q-47 0 -67 -15l-5 5l68 86q186 8 297 114.5t139 292.5h-178q-16 -123 -89 -190.5t-202 -67.5q-82 0 -141 33t-96 87t-54.5 123.5t-17.5 143.5q0 80 16.5 154.5t54.5 132t101.5 92.5t157.5 35q111 0 176.5 -55.5t85.5 -155.5h180 q-10 94 -49 162.5t-99.5 113.5t-139 66.5t-169.5 21.5q-125 0 -219 -44t-156.5 -120.5t-93 -180t-30.5 -222.5z" />
<glyph unicode="&#xe8;" horiz-adv-x="1099" d="M74 532q4 -121 35.5 -223t95 -176t157 -115t220.5 -41q180 0 298.5 90.5t153.5 268.5h-172q-23 -104 -93.5 -155.5t-180.5 -51.5q-86 0 -149.5 28.5t-104.5 77t-59.5 111t-16.5 131.5h793q4 96 -17.5 202.5t-78 197t-149.5 148.5t-235 58q-109 0 -199.5 -41 t-157.5 -114.5t-103.5 -174t-36.5 -221.5zM258 631q4 61 26.5 115.5t61.5 95.5t93.5 64.5t121.5 23.5q66 0 120 -23.5t94 -63.5t63.5 -95.5t27.5 -116.5h-608zM276 1497l269 -293h131l-176 293h-224z" />
<glyph unicode="&#xe9;" horiz-adv-x="1099" d="M74 532q4 -121 35.5 -223t95 -176t157 -115t220.5 -41q180 0 298.5 90.5t153.5 268.5h-172q-23 -104 -93.5 -155.5t-180.5 -51.5q-86 0 -149.5 28.5t-104.5 77t-59.5 111t-16.5 131.5h793q4 96 -17.5 202.5t-78 197t-149.5 148.5t-235 58q-109 0 -199.5 -41 t-157.5 -114.5t-103.5 -174t-36.5 -221.5zM258 631q4 61 26.5 115.5t61.5 95.5t93.5 64.5t121.5 23.5q66 0 120 -23.5t94 -63.5t63.5 -95.5t27.5 -116.5h-608zM426 1204h131l268 293h-223z" />
<glyph unicode="&#xea;" horiz-adv-x="1099" d="M74 532q4 -121 35.5 -223t95 -176t157 -115t220.5 -41q180 0 298.5 90.5t153.5 268.5h-172q-23 -104 -93.5 -155.5t-180.5 -51.5q-86 0 -149.5 28.5t-104.5 77t-59.5 111t-16.5 131.5h793q4 96 -17.5 202.5t-78 197t-149.5 148.5t-235 58q-109 0 -199.5 -41 t-157.5 -114.5t-103.5 -174t-36.5 -221.5zM244 1204h157l144 197l141 -197h172l-213 293h-190zM258 631q4 61 26.5 115.5t61.5 95.5t93.5 64.5t121.5 23.5q66 0 120 -23.5t94 -63.5t63.5 -95.5t27.5 -116.5h-608z" />
<glyph unicode="&#xeb;" horiz-adv-x="1099" d="M74 532q4 -121 35.5 -223t95 -176t157 -115t220.5 -41q180 0 298.5 90.5t153.5 268.5h-172q-23 -104 -93.5 -155.5t-180.5 -51.5q-86 0 -149.5 28.5t-104.5 77t-59.5 111t-16.5 131.5h793q4 96 -17.5 202.5t-78 197t-149.5 148.5t-235 58q-109 0 -199.5 -41 t-157.5 -114.5t-103.5 -174t-36.5 -221.5zM258 631q4 61 26.5 115.5t61.5 95.5t93.5 64.5t121.5 23.5q66 0 120 -23.5t94 -63.5t63.5 -95.5t27.5 -116.5h-608zM266 1212h185v213h-185v-213zM651 1212h185v213h-185v-213z" />
<glyph unicode="&#xec;" horiz-adv-x="454" d="M-45 1497l266 -293h131l-176 293h-221zM141 0h174v1059h-174v-1059z" />
<glyph unicode="&#xed;" horiz-adv-x="454" d="M102 1204h131l269 293h-223zM141 0h174v1059h-174v-1059z" />
<glyph unicode="&#xee;" horiz-adv-x="454" d="M-78 1204h156l143 197l141 -197h173l-213 293h-191zM141 0h174v1059h-174v-1059z" />
<glyph unicode="&#xef;" horiz-adv-x="454" d="M-55 1212h182v213h-182v-213zM141 0h174v1059h-174v-1059zM328 1212h184v213h-184v-213z" />
<glyph unicode="&#xf0;" horiz-adv-x="1175" d="M74 528q0 -117 32.5 -217t98 -175t162 -117t221.5 -42q127 0 222 42t160.5 117t98.5 175.5t33 216.5q0 236 -85 433.5t-272 351.5l236 108l-72 76l-245 -115q-41 33 -85 64t-73 51l-144 -92q29 -16 70 -43t74 -55l-223 -105l77 -82l236 111q25 -16 57.5 -47t67.5 -72 t67.5 -89t57.5 -101h-4q-55 63 -129 88.5t-156 25.5q-117 0 -207 -42t-151.5 -112.5t-93 -161.5t-31.5 -192zM258 528q0 158 81 256.5t239 98.5q90 0 154.5 -29t105.5 -78t60.5 -112.5t19.5 -135.5q0 -96 -26 -170.5t-71 -125t-105.5 -77t-127.5 -26.5q-68 0 -128.5 26.5 t-105.5 77t-70.5 125t-25.5 170.5z" />
<glyph unicode="&#xf1;" d="M131 0h174v598q0 72 19.5 132.5t58.5 105.5t97.5 69.5t137.5 24.5q100 0 158 -57.5t58 -155.5v-717h174v696q0 86 -17.5 157t-60.5 122t-112.5 79.5t-174.5 28.5q-236 0 -344 -192h-4v168h-164v-1059zM223 1223h107q-4 39 30.5 62.5t67.5 23.5q29 0 64.5 -12.5 t72.5 -26.5q37 -16 73 -28.5t62 -12.5q59 0 97.5 17.5t64.5 45.5q52 72 64 164h-107q-10 -31 -31.5 -60.5t-62.5 -29.5q-33 0 -66.5 13.5t-68.5 28.5t-73 27.5t-79 12.5q-49 0 -84 -18.5t-59.5 -49t-41.5 -71.5t-30 -86z" />
<glyph unicode="&#xf2;" horiz-adv-x="1175" d="M74 528q0 -117 32.5 -217t98 -175t162 -117t221.5 -42q127 0 222 42t160.5 117t98.5 175.5t33 216.5q0 117 -33 218.5t-98.5 176t-160.5 117.5t-222 43q-125 0 -221.5 -43t-162 -117.5t-98 -176t-32.5 -218.5zM258 528q0 96 25.5 171t70.5 126.5t105.5 78t128.5 26.5 t128 -26.5t105 -78t71 -126t26 -171.5q0 -96 -26 -170.5t-71 -125t-105.5 -77t-127.5 -26.5q-68 0 -128.5 26.5t-105.5 77t-70.5 125t-25.5 170.5zM313 1497l269 -293h131l-176 293h-224z" />
<glyph unicode="&#xf3;" horiz-adv-x="1175" d="M74 528q0 -117 32.5 -217t98 -175t162 -117t221.5 -42q127 0 222 42t160.5 117t98.5 175.5t33 216.5q0 117 -33 218.5t-98.5 176t-160.5 117.5t-222 43q-125 0 -221.5 -43t-162 -117.5t-98 -176t-32.5 -218.5zM258 528q0 96 25.5 171t70.5 126.5t105.5 78t128.5 26.5 t128 -26.5t105 -78t71 -126t26 -171.5q0 -96 -26 -170.5t-71 -125t-105.5 -77t-127.5 -26.5q-68 0 -128.5 26.5t-105.5 77t-70.5 125t-25.5 170.5zM463 1204h131l268 293h-223z" />
<glyph unicode="&#xf4;" horiz-adv-x="1175" d="M74 528q0 -117 32.5 -217t98 -175t162 -117t221.5 -42q127 0 222 42t160.5 117t98.5 175.5t33 216.5q0 117 -33 218.5t-98.5 176t-160.5 117.5t-222 43q-125 0 -221.5 -43t-162 -117.5t-98 -176t-32.5 -218.5zM258 528q0 96 25.5 171t70.5 126.5t105.5 78t128.5 26.5 t128 -26.5t105 -78t71 -126t26 -171.5q0 -96 -26 -170.5t-71 -125t-105.5 -77t-127.5 -26.5q-68 0 -128.5 26.5t-105.5 77t-70.5 125t-25.5 170.5zM281 1204h157l144 197l141 -197h172l-213 293h-190z" />
<glyph unicode="&#xf5;" horiz-adv-x="1175" d="M74 528q0 -117 32.5 -217t98 -175t162 -117t221.5 -42q127 0 222 42t160.5 117t98.5 175.5t33 216.5q0 117 -33 218.5t-98.5 176t-160.5 117.5t-222 43q-125 0 -221.5 -43t-162 -117.5t-98 -176t-32.5 -218.5zM242 1223h106q-4 39 31 62.5t67 23.5q29 0 65 -12.5 t73 -26.5q37 -16 72.5 -28.5t62.5 -12.5q59 0 97 17.5t65 45.5q51 72 63 164h-106q-10 -31 -32 -60.5t-63 -29.5q-33 0 -66.5 13.5t-68.5 28.5t-72.5 27.5t-78.5 12.5q-49 0 -84 -18.5t-59.5 -49t-42 -71.5t-29.5 -86zM258 528q0 96 25.5 171t70.5 126.5t105.5 78 t128.5 26.5t128 -26.5t105 -78t71 -126t26 -171.5q0 -96 -26 -170.5t-71 -125t-105.5 -77t-127.5 -26.5q-68 0 -128.5 26.5t-105.5 77t-70.5 125t-25.5 170.5z" />
<glyph unicode="&#xf6;" horiz-adv-x="1175" d="M74 528q0 -117 32.5 -217t98 -175t162 -117t221.5 -42q127 0 222 42t160.5 117t98.5 175.5t33 216.5q0 117 -33 218.5t-98.5 176t-160.5 117.5t-222 43q-125 0 -221.5 -43t-162 -117.5t-98 -176t-32.5 -218.5zM258 528q0 96 25.5 171t70.5 126.5t105.5 78t128.5 26.5 t128 -26.5t105 -78t71 -126t26 -171.5q0 -96 -26 -170.5t-71 -125t-105.5 -77t-127.5 -26.5q-68 0 -128.5 26.5t-105.5 77t-70.5 125t-25.5 170.5zM303 1212h184v213h-184v-213zM688 1212h184v213h-184v-213z" />
<glyph unicode="&#xf7;" horiz-adv-x="1228" d="M98 449h1032v139h-1032v-139zM483 96q0 -53 40 -91t93 -38q51 0 90 40t39 89q0 53 -38.5 92t-92.5 39q-53 0 -92 -39t-39 -92zM483 940q0 -53 40 -92t93 -39q51 0 90 41t39 90q0 53 -38.5 92t-92.5 39q-53 0 -92 -39t-39 -92z" />
<glyph unicode="&#xf8;" horiz-adv-x="1175" d="M70 4l57 -47l123 135q63 -55 147 -85t191 -30q127 0 222 42t160.5 117t98.5 175.5t33 216.5q0 113 -30 210t-89 169l123 135l-55 54l-119 -133q-66 59 -150 89.5t-194 30.5q-125 0 -221.5 -43t-162 -117.5t-98 -176t-32.5 -218.5q0 -113 30.5 -210t92.5 -173zM258 528 q0 96 25.5 171t70.5 126.5t105.5 78t128.5 26.5q137 0 227 -96l-496 -553q-29 51 -45 112.5t-16 134.5zM365 221l495 551q27 -47 42.5 -107.5t15.5 -136.5q0 -96 -26 -170.5t-71 -125t-105.5 -77t-127.5 -26.5q-131 0 -223 92z" />
<glyph unicode="&#xf9;" d="M131 362q0 -86 17.5 -156.5t60.5 -121.5t112.5 -79t174.5 -28q117 0 202.5 46.5t141.5 144.5h4v-168h164v1059h-174v-598q0 -72 -19.5 -132.5t-58.5 -105.5t-97.5 -69.5t-138.5 -24.5q-100 0 -157.5 57.5t-57.5 155.5v717h-174v-697zM295 1497l268 -293h131l-176 293 h-223z" />
<glyph unicode="&#xfa;" d="M131 362q0 -86 17.5 -156.5t60.5 -121.5t112.5 -79t174.5 -28q117 0 202.5 46.5t141.5 144.5h4v-168h164v1059h-174v-598q0 -72 -19.5 -132.5t-58.5 -105.5t-97.5 -69.5t-138.5 -24.5q-100 0 -157.5 57.5t-57.5 155.5v717h-174v-697zM444 1204h131l269 293h-223z" />
<glyph unicode="&#xfb;" d="M131 362q0 -86 17.5 -156.5t60.5 -121.5t112.5 -79t174.5 -28q117 0 202.5 46.5t141.5 144.5h4v-168h164v1059h-174v-598q0 -72 -19.5 -132.5t-58.5 -105.5t-97.5 -69.5t-138.5 -24.5q-100 0 -157.5 57.5t-57.5 155.5v717h-174v-697zM262 1204h158l143 197l142 -197h172 l-213 293h-191z" />
<glyph unicode="&#xfc;" d="M131 362q0 -86 17.5 -156.5t60.5 -121.5t112.5 -79t174.5 -28q117 0 202.5 46.5t141.5 144.5h4v-168h164v1059h-174v-598q0 -72 -19.5 -132.5t-58.5 -105.5t-97.5 -69.5t-138.5 -24.5q-100 0 -157.5 57.5t-57.5 155.5v717h-174v-697zM285 1212h184v213h-184v-213z M670 1212h184v213h-184v-213z" />
<glyph unicode="&#xfd;" horiz-adv-x="1024" d="M16 1059l420 -1053l-71 -178q-25 -47 -58 -71.5t-86 -24.5q-27 0 -52.5 8t-49.5 16v-159q29 -10 59.5 -14.5t61.5 -4.5q59 0 102 15.5t79 49t65.5 87t60.5 131.5l461 1198h-185l-297 -866h-4l-309 866h-197zM387 1204h131l268 293h-223z" />
<glyph unicode="&#xfe;" horiz-adv-x="1214" d="M137 -403h174v544h4q29 -47 71 -78.5t89 -50t95 -27t87 -8.5q121 0 212.5 43t151.5 118t90 175.5t30 212.5q0 113 -31 213.5t-91.5 177t-151.5 121.5t-214 45q-111 0 -203 -39.5t-135 -128.5h-4v547h-174v-1865zM305 530q0 74 17.5 146t56.5 128t100.5 91t149.5 35 q84 0 146.5 -33t102.5 -88t59 -125.5t19 -144.5q0 -78 -16 -152t-53 -131t-97.5 -92t-150.5 -35t-153.5 34t-103.5 89t-58.5 128t-18.5 150z" />
<glyph unicode="&#xff;" horiz-adv-x="1024" d="M16 1059l420 -1053l-71 -178q-25 -47 -58 -71.5t-86 -24.5q-27 0 -52.5 8t-49.5 16v-159q29 -10 59.5 -14.5t61.5 -4.5q59 0 102 15.5t79 49t65.5 87t60.5 131.5l461 1198h-185l-297 -866h-4l-309 866h-197zM227 1212h185v213h-185v-213zM612 1212h185v213h-185v-213z " />
<glyph unicode="&#x152;" horiz-adv-x="2199" d="M78 727q0 -162 44 -300t129 -240.5t210 -161t287 -58.5q55 0 111 11.5t106.5 33t91.5 54t67 75.5h4v-141h990v164h-795v506h717v164h-717v464h782v164h-977v-121h-4q-23 41 -62.5 70t-88.5 48.5t-103.5 28.5t-105.5 9q-162 0 -290 -58.5t-216 -161.5t-134 -243.5 t-46 -306.5zM272 719q0 123 31 234.5t92.5 196.5t153.5 134t217 49q117 0 204 -47t128 -110q23 -35 26.5 -72t3.5 -70v-616q0 -63 -28.5 -116.5t-77.5 -91.5t-115.5 -59.5t-144.5 -21.5q-119 0 -211 46t-153.5 126t-93.5 187.5t-32 230.5z" />
<glyph unicode="&#x153;" horiz-adv-x="1824" d="M74 530q0 -115 28.5 -215t87 -176t149.5 -119t216 -43q119 0 218 46.5t149 160.5q49 -115 150.5 -161t234.5 -46q348 0 452 359h-166q-31 -98 -106.5 -152.5t-179.5 -54.5q-78 0 -136.5 28.5t-96.5 77t-56.5 110.5t-16.5 132h768q6 125 -17 235.5t-80.5 192.5t-149.5 130 t-226 48q-113 0 -216 -46t-158 -140q-53 111 -148.5 148.5t-218.5 37.5t-213 -43t-150.5 -117.5t-89 -175t-28.5 -217.5zM258 508q0 78 15.5 153.5t50 135t92 96.5t139.5 37q90 0 147.5 -35t90 -91t45 -127t12.5 -145q0 -72 -13.5 -143.5t-47 -129.5t-90 -94t-144.5 -36 q-80 0 -137.5 34t-92 88t-51 121.5t-16.5 135.5zM1001 631q-2 131 78 215t217 84t213 -82t76 -217h-584z" />
<glyph unicode="&#x178;" horiz-adv-x="1327" d="M4 1462l565 -864v-598h195v598l559 864h-221l-428 -696l-438 696h-232zM379 1575h184v213h-184v-213zM764 1575h184v213h-184v-213z" />
<glyph unicode="&#x2c6;" horiz-adv-x="454" d="M-78 1204h156l143 197l141 -197h173l-213 293h-191z" />
<glyph unicode="&#x2dc;" horiz-adv-x="454" d="M-117 1223h107q-4 39 28.5 62.5t67.5 23.5q29 0 64.5 -12.5t72.5 -26.5q37 -16 73 -28.5t62 -12.5q59 0 97.5 17.5t64.5 45.5q52 72 64 164h-107q-10 -31 -31.5 -60.5t-62.5 -29.5q-33 0 -66.5 13.5t-68.5 28.5t-73 27.5t-79 12.5q-47 0 -81.5 -18.5t-59.5 -49t-42 -71.5 t-30 -86z" />
<glyph unicode="&#x2000;" horiz-adv-x="975" />
<glyph unicode="&#x2001;" horiz-adv-x="1950" />
<glyph unicode="&#x2002;" horiz-adv-x="975" />
<glyph unicode="&#x2003;" horiz-adv-x="1950" />
<glyph unicode="&#x2004;" horiz-adv-x="650" />
<glyph unicode="&#x2005;" horiz-adv-x="487" />
<glyph unicode="&#x2006;" horiz-adv-x="325" />
<glyph unicode="&#x2007;" horiz-adv-x="325" />
<glyph unicode="&#x2008;" horiz-adv-x="243" />
<glyph unicode="&#x2009;" horiz-adv-x="390" />
<glyph unicode="&#x200a;" horiz-adv-x="108" />
<glyph unicode="&#x2010;" horiz-adv-x="796" d="M102 487h592v164h-592v-164z" />
<glyph unicode="&#x2011;" horiz-adv-x="796" d="M102 487h592v164h-592v-164z" />
<glyph unicode="&#x2012;" horiz-adv-x="796" d="M102 487h592v164h-592v-164z" />
<glyph unicode="&#x2013;" horiz-adv-x="1024" d="M0 487h1024v164h-1024v-164z" />
<glyph unicode="&#x2014;" horiz-adv-x="2048" d="M266 487h1516v164h-1516v-164z" />
<glyph unicode="&#x2018;" horiz-adv-x="569" d="M172 934h227v227h-120q0 35 5 71t19 64.5t36.5 46t57.5 17.5v102q-57 0 -100 -24.5t-70.5 -65.5t-41 -95t-13.5 -116v-227z" />
<glyph unicode="&#x2019;" horiz-adv-x="569" d="M170 1235h121q0 -35 -5 -71t-19.5 -64.5t-37 -46t-57.5 -17.5v-102q59 0 101 24.5t70 65.5t41 95.5t13 115.5v227h-227v-227z" />
<glyph unicode="&#x201a;" horiz-adv-x="569" d="M170 0h121q0 -35 -5 -69.5t-19.5 -63.5t-37 -46.5t-57.5 -17.5v-102q59 0 101 24.5t70 65.5t41 95.5t13 113.5v227h-227v-227z" />
<glyph unicode="&#x201c;" horiz-adv-x="872" d="M135 934h227v227h-120q0 35 5 71t19.5 64.5t37 46t56.5 17.5v102q-57 0 -100 -24.5t-70.5 -65.5t-41 -95t-13.5 -116v-227zM510 934h227v227h-121q0 35 5.5 71t19.5 64.5t36.5 46t57.5 17.5v102q-57 0 -100 -24.5t-70.5 -65.5t-41 -95t-13.5 -116v-227z" />
<glyph unicode="&#x201d;" horiz-adv-x="872" d="M135 1235h121q0 -35 -5 -71t-19.5 -64.5t-37 -46t-57.5 -17.5v-102q59 0 101.5 24.5t70 65.5t40.5 95.5t13 115.5v227h-227v-227zM510 1235h121q0 -35 -5 -71t-19.5 -64.5t-37 -46t-57.5 -17.5v-102q59 0 101 24.5t70 65.5t41 95.5t13 115.5v227h-227v-227z" />
<glyph unicode="&#x201e;" horiz-adv-x="872" d="M135 0h121q0 -35 -5 -69.5t-19.5 -63.5t-37 -46.5t-57.5 -17.5v-102q59 0 101.5 24.5t70 65.5t40.5 95.5t13 113.5v227h-227v-227zM510 0h121q0 -35 -5 -69.5t-19.5 -63.5t-37 -46.5t-57.5 -17.5v-102q59 0 101 24.5t70 65.5t41 95.5t13 113.5v227h-227v-227z" />
<glyph unicode="&#x2022;" horiz-adv-x="1024" d="M147 731q0 -76 29 -142.5t78 -116.5t115.5 -78.5t142.5 -28.5t142.5 28.5t116.5 78.5t79 116.5t29 142.5t-29 142.5t-79 115.5t-116.5 78t-142.5 29t-142.5 -29t-115.5 -78t-78 -115.5t-29 -142.5z" />
<glyph unicode="&#x2026;" horiz-adv-x="2048" d="M227 0h228v227h-228v-227zM909 0h228v227h-228v-227zM1591 0h228v227h-228v-227z" />
<glyph unicode="&#x202f;" horiz-adv-x="390" />
<glyph unicode="&#x2039;" horiz-adv-x="530" d="M102 479l312 -246v177l-205 159l205 160v176l-312 -246v-180z" />
<glyph unicode="&#x203a;" horiz-adv-x="530" d="M117 233l311 246v180l-311 246v-176l205 -160l-205 -159v-177z" />
<glyph unicode="&#x205f;" horiz-adv-x="487" />
<glyph unicode="&#x20ac;" d="M27 565h157q86 -596 588 -596q178 0 315 88v215q-86 -80 -141 -108q-76 -39 -174 -39q-322 0 -389 440h446l54 125h-510q-2 10 -2 21v22v31q0 16 2 33h538l56 125h-580q35 170 115 274q100 131 254 131q150 0 293 -141l94 170q-184 129 -371 129q-242 0 -395 -166 q-137 -145 -187 -397h-110l-53 -125h149q-2 -14 -2 -31v-35v-20t2 -21h-94z" />
<glyph unicode="&#x2122;" horiz-adv-x="2027" d="M131 1350h264v-732h140v732h264v112h-668v-112zM971 618h139v705h4l277 -705h88l276 705h4v-705h139v844h-212l-248 -641l-252 641h-215v-844z" />
<glyph unicode="&#xe000;" horiz-adv-x="1054" d="M0 0v1055h1055v-1055h-1055z" />
</font>
</defs>
</svg>
