<?xml version="1.0" standalone="no"?>
<!DOCTYPE svg PUBLIC "-//W3C//DTD SVG 1.1//EN" "http://www.w3.org/Graphics/SVG/1.1/DTD/svg11.dtd" >
<svg xmlns="http://www.w3.org/2000/svg">
<metadata></metadata>
<defs>
<font id="helvetica_neue_mediumregular" horiz-adv-x="1138" >
<font-face units-per-em="2048" ascent="1638" descent="-410" />
<missing-glyph horiz-adv-x="569" />
<glyph unicode="&#xfb01;" d="M18 885v174h175v88q0 100 24.5 162.5t65.5 96.5t93 45t109 11q113 0 164 -14v-182q-23 6 -48.5 9t-59.5 3q-47 0 -81 -22.5t-34 -88.5v-108h199v-174h-199v-885h-233v885h-175zM774 0v1059h234v-1059h-234zM774 1241v221h234v-221h-234z" />
<glyph unicode="&#xfb02;" d="M18 885v174h175v88q0 100 24.5 162.5t65.5 96.5t93 45t109 11q113 0 164 -14v-182q-23 6 -48.5 9t-59.5 3q-47 0 -81 -22.5t-34 -88.5v-108h199v-174h-199v-885h-233v885h-175zM774 0v1462h234v-1462h-234z" />
<glyph horiz-adv-x="2048" />
<glyph horiz-adv-x="2048" />
<glyph unicode="&#xd;" horiz-adv-x="569" />
<glyph unicode=" "  horiz-adv-x="569" />
<glyph unicode="&#x09;" horiz-adv-x="569" />
<glyph unicode="&#xa0;" horiz-adv-x="569" />
<glyph unicode="!" horiz-adv-x="569" d="M147 0v256h275v-256h-275zM158 1040v422h256v-422l-68 -632h-121z" />
<glyph unicode="&#x22;" horiz-adv-x="909" d="M170 885v577h209v-577h-209zM530 885v577h209v-577h-209z" />
<glyph unicode="#" d="M70 430v154h215l37 266h-193v154h213l59 430h166l-61 -430h227l60 430h165l-61 -430h176v-154h-196l-37 -266h174v-154h-195l-61 -430h-164l59 430h-225l-61 -430h-164l59 430h-192zM449 584h227l37 266h-228z" />
<glyph unicode="$" d="M35 444h233q-2 -135 59.5 -212.5t202.5 -81.5v495q-84 23 -166.5 54.5t-149.5 81.5t-107.5 126t-40.5 189q0 98 37.5 172.5t102 125t148.5 77t176 26.5v160h88v-160q92 0 174 -24.5t142.5 -73.5t96.5 -125t36 -176h-233q-4 104 -54.5 159.5t-161.5 55.5v-432 q92 -25 180.5 -57.5t156 -84t108.5 -127t41 -186.5q0 -115 -38 -200t-103.5 -141t-153.5 -86t-191 -34v-160h-88v160q-111 2 -202.5 35t-157.5 93.5t-101.5 148.5t-33.5 202zM299 1112q0 -49 20.5 -84t52 -59.5t73.5 -40t85 -25.5v410q-111 0 -171 -46t-60 -155zM618 150 q111 8 181.5 64t70.5 179q0 57 -21.5 96t-57 66t-80.5 43t-93 29v-477z" />
<glyph unicode="%" horiz-adv-x="2048" d="M168 1055q0 82 19.5 156.5t61.5 130t106.5 88t154.5 32.5t154.5 -32.5t106.5 -88t61.5 -130t19.5 -156.5q0 -84 -18.5 -158t-59.5 -129t-106.5 -88t-157.5 -33t-157.5 33t-106.5 88t-59.5 129t-18.5 158zM352 1055q0 -57 8.5 -107.5t27 -87.5t48 -58.5t72.5 -21.5 t73.5 21.5t49 58.5t28 87t9.5 108q0 51 -7.5 100t-26 88t-49 62.5t-77.5 23.5t-78 -23.5t-48 -62.5t-23.5 -88t-6.5 -100zM532 -49l797 1532h156l-793 -1532h-160zM1196 379q0 82 19.5 156.5t61.5 130t106.5 88t154.5 32.5t154.5 -32.5t106.5 -88t61.5 -130t19.5 -156.5 q0 -84 -18.5 -158t-59.5 -129t-106.5 -88t-157.5 -33t-157.5 33t-106.5 88t-59.5 129t-18.5 158zM1380 379q0 -57 8.5 -107.5t27 -87.5t48 -58.5t72.5 -21.5t73.5 21.5t49 58.5t28 87.5t9.5 107.5q0 51 -7.5 100t-25.5 88t-49 62.5t-78 23.5t-78 -23.5t-48 -62.5t-23.5 -88 t-6.5 -100z" />
<glyph unicode="&#x26;" horiz-adv-x="1327" d="M66 406q0 78 28.5 141t75.5 115.5t107.5 93.5t123.5 73q-29 37 -55.5 73t-46.5 75t-32.5 82t-12.5 90q0 80 27.5 143.5t77 109.5t115 70.5t138.5 24.5q70 0 136.5 -21.5t116.5 -65.5t81 -109.5t31 -153.5q0 -66 -21.5 -121t-57.5 -101t-84 -83t-101 -66l227 -274 q12 35 24.5 80t20.5 116h205q-10 -96 -38 -188t-77 -170l281 -340h-287l-133 164q-82 -100 -181.5 -146.5t-228.5 -46.5q-100 0 -185 30t-146.5 85t-95 136t-33.5 184zM299 401q0 -119 66.5 -182t169.5 -63q63 0 108 17t77 42t53.5 53.5t37.5 50.5l-287 357 q-33 -20 -71.5 -41t-72.5 -51.5t-57.5 -73.5t-23.5 -109zM463 1161q0 -37 13 -68.5t32.5 -61.5t43 -58.5t44.5 -54.5q33 23 63.5 46t55 50.5t39 62.5t14.5 78q0 72 -41 120t-109 48q-66 0 -110.5 -44t-44.5 -118z" />
<glyph unicode="'" horiz-adv-x="569" d="M180 885v577h209v-577h-209z" />
<glyph unicode="(" horiz-adv-x="569" d="M100 553q0 248 77 487.5t218 456.5h191q-123 -221 -187.5 -453.5t-64.5 -490.5t61.5 -491.5t190.5 -452.5h-191q-61 98 -115.5 202.5t-94.5 220t-62.5 245t-22.5 276.5z" />
<glyph unicode=")" horiz-adv-x="569" d="M-16 -391q123 219 187.5 451.5t64.5 490.5t-61.5 491.5t-190.5 454.5h190q61 -98 114.5 -203.5t93.5 -221.5t63.5 -245t23.5 -276q0 -248 -77 -487.5t-218 -454.5h-190z" />
<glyph unicode="*" horiz-adv-x="757" d="M39 1171l45 134l225 -88v245h140v-245l223 88l49 -134l-234 -77l144 -193l-109 -80l-145 201l-139 -201l-115 80l143 193z" />
<glyph unicode="+" horiz-adv-x="1228" d="M98 414v209h412v413h209v-413h411v-209h-411v-414h-209v414h-412z" />
<glyph unicode="," horiz-adv-x="569" d="M141 0v276h285v-276q-2 -127 -78 -213t-198 -111v125q68 16 101.5 74.5t31.5 124.5h-142z" />
<glyph unicode="-" horiz-adv-x="796" d="M100 446v222h596v-222h-596z" />
<glyph unicode="." horiz-adv-x="569" d="M141 0v276h285v-276h-285z" />
<glyph unicode="/" horiz-adv-x="720" d="M-45 -35l588 1532h223l-588 -1532h-223z" />
<glyph unicode="0" d="M74 717q0 123 19.5 254t73.5 240.5t151 180t251 70.5t251.5 -70.5t151.5 -180t73.5 -240.5t19.5 -254t-19.5 -254t-73.5 -240.5t-151.5 -180.5t-251.5 -71t-251 71t-151 180.5t-73.5 240.5t-19.5 254zM307 717q0 -113 12.5 -213.5t42 -175t79.5 -118.5t128 -44 q76 0 127.5 44t81 118.5t41.5 175t12 213.5t-12 212t-41.5 175t-81 120t-127.5 44q-78 0 -128 -44t-79.5 -120t-42 -175.5t-12.5 -211.5z" />
<glyph unicode="1" d="M109 1012v184q74 0 143.5 12.5t125.5 41t96 73.5t52 111h191v-1434h-256v1012h-352z" />
<glyph unicode="2" d="M80 0q2 178 86 311t229 232q70 51 145.5 99t139 103.5t104.5 120t43 148.5q0 39 -9 83t-35.5 82t-73.5 63.5t-123 25.5q-70 0 -116 -28t-73.5 -76t-41 -113.5t-15.5 -141.5h-234q0 119 32 220.5t95.5 175t154.5 115.5t212 42q131 0 219 -43t142.5 -108.5t77 -142 t22.5 -146.5q0 -86 -26.5 -155.5t-71.5 -128t-102.5 -107.5t-119 -92t-123 -82t-113.5 -78t-91 -81t-54 -89h699v-209h-979z" />
<glyph unicode="3" d="M63 471h234q-4 -131 64.5 -218t205.5 -87q117 0 196 66.5t79 189.5q0 84 -33 133t-86 74.5t-119.5 32t-136.5 4.5v174q57 -2 114.5 8t102.5 35.5t72.5 70.5t27.5 111q0 92 -62.5 147.5t-160.5 55.5q-61 0 -106 -24.5t-75 -66.5t-44 -94.5t-12 -107.5h-234q4 104 39 193 t95.5 155t146.5 102.5t194 36.5q84 0 165 -24.5t145.5 -71.5t103.5 -119.5t39 -167.5q0 -109 -49 -189.5t-154 -117.5v-4q123 -25 191.5 -122t68.5 -236q0 -102 -41 -183.5t-110.5 -137.5t-161.5 -87t-195 -31q-125 0 -218 36t-155.5 101.5t-95 157.5t-35.5 205z" />
<glyph unicode="4" d="M49 340v231l615 863h221v-910h184v-184h-184v-340h-221v340h-615zM229 524h435v631h-5z" />
<glyph unicode="5" d="M72 408h233q10 -117 80 -179.5t184 -62.5q74 0 125 24.5t83 67.5t45.5 100.5t13.5 122.5q0 59 -16.5 113.5t-49.5 95.5t-85 65.5t-122 24.5q-74 0 -138.5 -27.5t-92.5 -103.5h-234l154 785h741v-209h-567l-74 -365l4 -4q47 53 120 81t145 28q106 0 190 -36t141.5 -100.5 t87 -152.5t29.5 -191q0 -86 -27.5 -177t-88 -165.5t-154.5 -123t-226 -48.5q-104 0 -193 28t-156.5 83t-107.5 136t-44 190z" />
<glyph unicode="6" d="M70 721q0 129 27.5 260t91 238.5t167 175t254.5 67.5q86 0 162 -28.5t134.5 -79.5t95 -123t40.5 -160h-233q-8 88 -62.5 142.5t-146.5 54.5q-63 0 -109.5 -23.5t-78 -62.5t-51 -89.5t-32 -105.5t-17.5 -109.5t-9 -101.5l4 -4q47 86 130 128t179 42q106 0 190.5 -37 t143 -101.5t89 -152.5t30.5 -190q0 -104 -34 -193.5t-97.5 -156t-151.5 -103.5t-194 -37q-158 0 -259.5 58.5t-159.5 160t-80.5 237.5t-22.5 294zM326 465q0 -59 16 -112.5t49 -95.5t81.5 -66.5t111.5 -24.5t110 25.5t79 66.5t47.5 95.5t15.5 111.5t-15.5 110.5t-47.5 93.5 t-79 64.5t-110 24.5t-111.5 -23.5t-81.5 -63.5t-49 -93.5t-16 -112.5z" />
<glyph unicode="7" d="M72 1225v209h981v-195q-113 -127 -205 -263t-161 -288.5t-112 -322.5t-57 -365h-256q12 170 58.5 336t119 321.5t169 299t206.5 268.5h-743z" />
<glyph unicode="8" d="M63 422q0 135 71 227t192 123v4q-98 37 -150.5 114t-52.5 181q0 184 115.5 287.5t330.5 103.5t331 -103.5t116 -287.5q0 -104 -52.5 -181t-150.5 -114v-4q121 -31 191.5 -123t70.5 -227q0 -104 -38 -188t-105.5 -142.5t-160.5 -89.5t-202 -31t-202 31t-160.5 89.5 t-105.5 142t-38 188.5zM297 422q0 -127 77.5 -196.5t194.5 -69.5t195 69.5t78 196.5q0 119 -78 185.5t-195 66.5t-194.5 -66.5t-77.5 -185.5zM344 1059q0 -102 63.5 -156.5t161.5 -54.5t162 54t64 157q0 106 -66 162.5t-160 56.5t-159.5 -56.5t-65.5 -162.5z" />
<glyph unicode="9" d="M70 973q0 104 32.5 193t96 156t155.5 103.5t209 36.5q152 0 250 -58t154.5 -159.5t79 -239t22.5 -292.5q0 -129 -27.5 -260t-91 -239t-167 -175.5t-255.5 -67.5q-86 0 -161.5 29t-134 80t-95.5 122.5t-41 159.5h234q8 -88 62 -142t147 -54q94 0 150 50t87 125t42 160 t18 156l-5 5q-47 -84 -128.5 -128.5t-180.5 -44.5q-102 0 -185 35t-142.5 97.5t-92 151.5t-32.5 200zM303 975q0 -59 15.5 -113.5t46 -95.5t77.5 -66.5t111 -25.5q66 0 115 24.5t80.5 66.5t48 96t16.5 114q0 57 -16.5 110.5t-48 93.5t-80.5 64.5t-115 24.5 q-63 0 -110.5 -23.5t-78 -64.5t-46 -94.5t-15.5 -110.5z" />
<glyph unicode=":" horiz-adv-x="569" d="M141 0v276h285v-276h-285zM141 760v276h285v-276h-285z" />
<glyph unicode=";" horiz-adv-x="569" d="M141 0v276h285v-276q-2 -127 -78 -213t-198 -111v125q68 16 101.5 74.5t31.5 124.5h-142zM141 760v276h285v-276h-285z" />
<glyph unicode="&#x3c;" horiz-adv-x="1228" d="M94 444v148l1041 461v-209l-766 -326l766 -325v-209z" />
<glyph unicode="=" horiz-adv-x="1228" d="M98 207v209h1032v-209h-1032zM98 621v208h1032v-208h-1032z" />
<glyph unicode="&#x3e;" horiz-adv-x="1228" d="M94 -16v209l766 325l-766 326v209l1041 -461v-148z" />
<glyph unicode="?" d="M100 997q0 113 34 205t98.5 157.5t155.5 101.5t204 36q94 0 175 -27.5t141.5 -80t95 -130t34.5 -176.5q0 -72 -15 -124t-41 -90t-58.5 -67.5t-65.5 -58.5q-39 -33 -71.5 -63.5t-57 -68.5t-38 -89t-13.5 -125h-221q0 90 9 152.5t29.5 110t50 83t70.5 70.5q33 29 63 53.5 t53.5 54t36.5 66.5t13 88q0 61 -21.5 105.5t-52 71t-65.5 39t-61 12.5q-127 0 -187.5 -83t-60.5 -223h-234zM426 0v256h274v-256h-274z" />
<glyph unicode="@" horiz-adv-x="1638" d="M100 758q0 156 60.5 290t163 234t238.5 157.5t290 57.5q137 0 261 -44t218 -124t150.5 -190.5t56.5 -241.5q0 -154 -52 -268.5t-127 -190.5t-159 -113.5t-145 -37.5q-47 0 -82 29.5t-39 89.5h-4q-41 -47 -102.5 -82t-127.5 -35q-63 0 -118.5 25.5t-95.5 69.5t-62.5 102.5 t-22.5 123.5q0 98 33 192.5t91.5 170.5t141.5 122t183 46q72 0 131 -35t98 -113l37 117h144l-148 -539q-8 -25 -13 -49t-5 -45q0 -20 9 -33.5t30 -13.5q47 0 95 34t86 93t61.5 140t23.5 175q0 115 -43 206t-118 154.5t-174 97.5t-212 34q-131 0 -238.5 -48t-185.5 -131 t-121 -194.5t-43 -240.5q0 -150 46 -271t127 -205t192.5 -130t240.5 -46q135 0 256 53.5t205 149.5h144q-98 -160 -260 -248t-353 -88q-158 0 -297 58.5t-242.5 163t-163 250t-59.5 321.5zM575 629q0 -82 44 -134.5t120 -52.5q61 0 112.5 36t88.5 90.5t58.5 119t21.5 119.5 q0 37 -13.5 69.5t-35 57t-51 39t-62.5 14.5q-63 0 -115.5 -34.5t-89.5 -87t-57.5 -116t-20.5 -120.5z" />
<glyph unicode="A" horiz-adv-x="1366" d="M-14 0l561 1462h272l563 -1462h-274l-137 387h-584l-137 -387h-264zM457 582h446l-219 628h-6z" />
<glyph unicode="B" horiz-adv-x="1441" d="M156 0v1462h710q197 0 315.5 -90t118.5 -272q0 -111 -54 -190t-154 -122v-4q135 -29 204.5 -128t69.5 -248q0 -86 -30.5 -161t-96 -129.5t-168 -86t-244.5 -31.5h-671zM412 209h452q117 0 181.5 60.5t64.5 170.5q0 109 -64.5 167.5t-181.5 58.5h-452v-457zM412 850h417 q92 0 153.5 52t61.5 151q0 111 -55 155.5t-160 44.5h-417v-403z" />
<glyph unicode="C" horiz-adv-x="1478" d="M78 731q0 156 48 295t138 243.5t220 166t294 61.5q123 0 231.5 -33.5t191.5 -98.5t134 -157t64 -211h-256q-16 63 -45 116.5t-74 92.5t-105.5 60.5t-140.5 21.5q-117 0 -201.5 -47t-138 -126t-79 -179t-25.5 -205q0 -104 25.5 -204.5t79 -179.5t138.5 -126t201 -47 q86 0 151.5 29.5t113 82t74 122t34.5 149.5h250q-8 -131 -56.5 -239.5t-130 -187.5t-192.5 -122t-244 -43q-164 0 -294 60.5t-220 165t-138 243.5t-48 297z" />
<glyph unicode="D" horiz-adv-x="1478" d="M156 0v1462h606q168 0 291 -57t200.5 -156.5t115.5 -232.5t38 -285t-38 -285t-115.5 -232t-200.5 -156.5t-291 -57.5h-606zM412 209h252q150 0 245 40t149 110.5t73.5 166t19.5 205.5q0 111 -19.5 206t-73.5 166t-149.5 110.5t-244.5 39.5h-252v-1044z" />
<glyph unicode="E" horiz-adv-x="1290" d="M156 0v1462h1052v-221h-796v-383h737v-209h-737v-428h811v-221h-1067z" />
<glyph unicode="F" horiz-adv-x="1214" d="M156 0v1462h1009v-221h-753v-383h661v-209h-661v-649h-256z" />
<glyph unicode="G" horiz-adv-x="1554" d="M88 731q0 156 48 295t138.5 243.5t220.5 166t293 61.5q119 0 226.5 -31.5t191.5 -94t139.5 -157t69.5 -217.5h-250q-10 72 -44 126.5t-85 91t-114.5 55t-133.5 18.5q-117 0 -201.5 -47t-138 -126t-79 -179t-25.5 -205q0 -104 25.5 -204.5t79 -179.5t138.5 -126t201 -47 h13q90 0 161 26q76 27 128.5 79.5t79 128t28.5 167.5h-389v195h623v-770h-164l-39 172q-102 -117 -204.5 -162t-236.5 -45q-164 0 -293.5 60.5t-220 165t-138.5 243.5t-48 297z" />
<glyph unicode="H" horiz-adv-x="1478" d="M150 0v1462h256v-581h665v581h256v-1462h-256v659h-665v-659h-256z" />
<glyph unicode="I" horiz-adv-x="569" d="M156 0v1462h256v-1462h-256z" />
<glyph unicode="J" horiz-adv-x="1099" d="M27 434v78h256v-76q0 -125 42 -193.5t158 -68.5q61 0 101.5 18.5t64 54.5t31.5 89t8 121v1005h256v-991q0 -96 -16.5 -186t-66.5 -162t-145 -115t-253 -43q-117 0 -199 36t-135 98.5t-77.5 148.5t-24.5 186z" />
<glyph unicode="K" horiz-adv-x="1402" d="M156 0v1462h256v-665l651 665h315l-583 -583l624 -879h-319l-479 698l-209 -206v-492h-256z" />
<glyph unicode="L" horiz-adv-x="1175" d="M156 0v1462h256v-1241h743v-221h-999z" />
<glyph unicode="M" horiz-adv-x="1820" d="M152 0v1462h360l403 -1145h5l393 1145h356v-1462h-244v1128h-4l-405 -1128h-211l-406 1128h-4v-1128h-243z" />
<glyph unicode="N" horiz-adv-x="1478" d="M145 0v1462h271l667 -1077h4v1077h244v-1462h-270l-666 1075h-6v-1075h-244z" />
<glyph unicode="O" horiz-adv-x="1556" d="M78 731q0 156 48 295t138 243.5t220 166t294 61.5t294 -61.5t220 -166t138.5 -243.5t48.5 -295q0 -158 -48.5 -297t-138.5 -243.5t-220 -165t-294 -60.5t-294 60.5t-220 165t-138 243.5t-48 297zM334 731q0 -104 25.5 -204.5t79 -179.5t138.5 -126t201 -47q117 0 202 47 t138 126t79 179.5t26 204.5t-26 204.5t-79 179.5t-138 126t-202 47t-201.5 -47t-138 -126t-79 -179t-25.5 -205z" />
<glyph unicode="P" horiz-adv-x="1366" d="M156 0v1462h645q156 0 254 -45t151.5 -112.5t72.5 -147.5t19 -147q0 -68 -19 -147t-72.5 -146.5t-152 -111.5t-253.5 -44h-389v-561h-256zM412 770h374q43 0 88.5 12.5t83 40t61 73.5t23.5 116q0 72 -20.5 119t-55 74.5t-79.5 37.5t-96 10h-379v-483z" />
<glyph unicode="Q" horiz-adv-x="1556" d="M78 731q0 156 48 295t138 243.5t220 166t294 61.5t294 -61.5t220 -166t138.5 -243.5t48.5 -295q0 -76 -12.5 -152.5t-37 -150.5t-63.5 -140.5t-94 -117.5l188 -164l-125 -139l-213 186q-82 -47 -170 -67.5t-174 -20.5q-164 0 -294 60.5t-220 165t-138 243.5t-48 297z M334 731q0 -104 25.5 -204.5t79 -179.5t138.5 -126t201 -47q41 0 83 8t81 27l-147 129l123 141l178 -155q70 84 98.5 190.5t28.5 216.5q0 104 -26 204.5t-79 179.5t-138 126t-202 47t-201.5 -47t-138 -126t-79 -179t-25.5 -205z" />
<glyph unicode="R" horiz-adv-x="1441" d="M156 0v1462h698q242 0 362.5 -104.5t120.5 -290.5q0 -104 -30.5 -173t-71.5 -111t-81 -60t-58 -25v-4q33 -4 70.5 -20.5t70.5 -52t54.5 -93t21.5 -143.5q0 -129 19.5 -234.5t60.5 -150.5h-275q-29 47 -34 104.5t-5 110.5q0 100 -12 173t-45 121t-89 70.5t-145 22.5h-376 v-602h-256zM412 797h419q123 0 186.5 58t63.5 175q0 70 -20.5 114t-56 68.5t-81.5 32.5t-96 8h-415v-456z" />
<glyph unicode="S" horiz-adv-x="1327" d="M68 487h256q0 -84 28.5 -143t79.5 -97t117.5 -55.5t144.5 -17.5q84 0 143.5 19.5t96.5 50t53.5 70.5t16.5 81q0 84 -38 124t-83 56q-78 29 -181.5 54.5t-255.5 66.5q-94 25 -156.5 65t-99 89t-52 104.5t-15.5 112.5q0 111 46 191.5t122 134t172 79t194 25.5 q115 0 216.5 -29.5t178 -89t122 -146.5t45.5 -202h-256q-10 141 -96.5 199.5t-219.5 58.5q-45 0 -92 -9t-86 -30.5t-64.5 -58.5t-25.5 -92q0 -78 48 -122t126 -67q8 -2 64.5 -17t126 -33.5t136 -36t95.5 -25.5q72 -23 125 -62t89 -89t53.5 -107.5t17.5 -114.5 q0 -123 -50.5 -210t-132.5 -142.5t-186.5 -81t-212.5 -25.5q-125 0 -235.5 31t-192.5 94.5t-131 162.5t-51 234z" />
<glyph unicode="T" horiz-adv-x="1214" d="M16 1241v221h1184v-221h-465v-1241h-256v1241h-463z" />
<glyph unicode="U" horiz-adv-x="1478" d="M139 526v936h256v-852q0 -74 7.5 -149.5t41 -136t102 -99.5t193.5 -39t193.5 39t102.5 99.5t41 136.5t7 149v852h256v-936q0 -141 -43 -245.5t-121.5 -175t-189.5 -105.5t-246 -35t-245.5 35t-189.5 105.5t-122 175t-43 245.5z" />
<glyph unicode="V" horiz-adv-x="1251" d="M-10 1462h266l367 -1157h4l374 1157h261l-500 -1462h-285z" />
<glyph unicode="W" horiz-adv-x="1933" d="M12 1462h260l265 -1118h4l295 1118h262l286 -1118h5l272 1118h260l-403 -1462h-261l-292 1118h-4l-299 -1118h-265z" />
<glyph unicode="X" horiz-adv-x="1327" d="M-6 0l518 758l-483 704h305l332 -516l346 516h286l-483 -704l518 -758h-311l-365 559l-370 -559h-293z" />
<glyph unicode="Y" horiz-adv-x="1327" d="M-12 1462h297l387 -655l381 655h286l-546 -889v-573h-256v573z" />
<glyph unicode="Z" horiz-adv-x="1290" d="M47 0v209l852 1032h-786v221h1112v-194l-852 -1047h872v-221h-1198z" />
<glyph unicode="[" horiz-adv-x="606" d="M147 -391v1888h457v-184h-235v-1520h235v-184h-457z" />
<glyph unicode="\" horiz-adv-x="720" d="M-45 1497h223l588 -1532h-223z" />
<glyph unicode="]" horiz-adv-x="606" d="M2 -207h236v1520h-236v184h457v-1888h-457v184z" />
<glyph unicode="^" horiz-adv-x="1228" d="M172 686l369 748h147l369 -748h-209l-234 506l-233 -506h-209z" />
<glyph unicode="_" horiz-adv-x="1024" d="M0 -154h1024v-102h-1024v102z" />
<glyph unicode="`" horiz-adv-x="493" d="M-59 1499h274l186 -293h-170z" />
<glyph unicode="a" d="M66 281q0 98 35.5 159.5t94 96t131 50t146.5 23.5q63 12 120.5 17.5t101.5 17.5t70 38t26 77q0 45 -21.5 73.5t-53.5 44t-71 20.5t-74 5q-98 0 -161.5 -41t-71.5 -127h-234q6 102 49.5 170t110 109t150.5 57t172 16q78 0 153.5 -16t136 -53t97.5 -95.5t37 -142.5v-544 q0 -43 11 -61.5t44 -18.5h25q14 0 32 4v-162q-12 -4 -31.5 -9t-40 -9.5t-41 -6.5t-34.5 -2q-72 0 -119 29t-61 100q-70 -68 -171.5 -98.5t-195.5 -30.5q-72 0 -137.5 19.5t-115.5 57.5t-79.5 96.5t-29.5 136.5zM299 291q0 -39 22.5 -65.5t54.5 -42t69.5 -21.5t68.5 -6 q39 0 84 10t85 34.5t66.5 62.5t26.5 93v174q-53 -35 -131 -42t-156 -21q-37 -6 -71.5 -17.5t-61 -31t-42 -51t-15.5 -76.5z" />
<glyph unicode="b" horiz-adv-x="1251" d="M129 0v1462h233v-540h5q25 39 59.5 69.5t76.5 52t88 32.5t91 11q125 0 218 -44t154.5 -120.5t92.5 -179t31 -219.5q0 -106 -28 -206.5t-84 -177.5t-142 -123t-203 -46q-53 0 -107.5 7.5t-103.5 28t-89 53t-67 85.5h-4v-145h-221zM354 528q0 -80 19.5 -148.5t58.5 -117.5 t93.5 -77.5t125.5 -28.5q80 0 135.5 32.5t91 85t51 118.5t15.5 136q0 72 -18.5 139.5t-55 120t-92 84t-127.5 31.5q-147 0 -222 -102.5t-75 -272.5z" />
<glyph unicode="c" d="M72 518q0 119 32.5 223.5t98 181t163 120.5t228.5 44q92 0 175 -23.5t147.5 -70.5t105.5 -118.5t49 -169.5h-233q-14 98 -79 148t-163 50q-45 0 -96 -15.5t-94.5 -57.5t-72 -116.5t-28.5 -195.5q0 -66 15.5 -131t49 -116.5t87 -83t129.5 -31.5q102 0 168.5 63.5 t83.5 177.5h233q-33 -207 -156.5 -316.5t-328.5 -109.5q-125 0 -220.5 42t-161 115t-99 173t-33.5 217z" />
<glyph unicode="d" horiz-adv-x="1251" d="M72 537q0 143 39 247.5t103.5 172t147 99t168.5 31.5q49 0 100.5 -9t98.5 -29.5t87 -52t67 -74.5h4v540h233v-1462h-221v143h-4q-47 -92 -137 -132t-191 -40q-125 0 -218 44t-154.5 120t-92 179.5t-30.5 222.5zM305 518q0 -68 17.5 -133.5t53.5 -116.5t91 -81.5 t131 -30.5q78 0 134 32.5t92 86t53.5 120t17.5 135.5q0 176 -79 274.5t-214 98.5q-82 0 -138 -33.5t-92 -88t-51.5 -123t-15.5 -140.5z" />
<glyph unicode="e" d="M72 528q0 113 35.5 214.5t102 178t161 121.5t213.5 45q125 0 224 -52t164 -138q66 -85 96 -197q20 -74 20 -152q0 -39 -5 -79h-778q0 -61 17.5 -118.5t52.5 -100.5t88 -68.5t127 -25.5q102 0 164.5 44t93.5 132h221q-18 -86 -63 -153.5t-108.5 -114t-142.5 -70 t-165 -23.5q-125 0 -221.5 41t-163 115t-100 176.5t-33.5 224.5zM305 623h545q-4 55 -23.5 106t-53.5 89t-82 61.5t-107 23.5q-61 0 -111.5 -21.5t-86.5 -59.5t-57.5 -89t-23.5 -110z" />
<glyph unicode="f" horiz-adv-x="645" d="M18 885v174h175v88q0 100 24.5 162.5t65.5 96.5t93 45t109 11q113 0 164 -14v-182q-23 6 -48.5 9t-59.5 3q-47 0 -81 -22.5t-34 -88.5v-108h199v-174h-199v-885h-233v885h-175z" />
<glyph unicode="g" horiz-adv-x="1214" d="M72 557q0 106 32.5 202.5t94 169t150.5 115.5t202 43q100 0 184 -41.5t129 -132.5h4v146h234v-1004q0 -240 -134 -357.5t-386 -117.5q-80 0 -161 16.5t-147.5 55.5t-111.5 102.5t-53 155.5h233q10 -49 34.5 -80t58.5 -48.5t75 -22.5t86 -5q141 0 206.5 70t65.5 201v161 h-4q-49 -88 -134 -137t-183 -49q-127 0 -216 44t-147.5 121t-85 177t-26.5 215zM305 535q0 -66 16.5 -128.5t50.5 -111.5t86 -80t126 -31q78 0 132 32t88 84t49 118.5t15 134.5t-16 131.5t-50 112.5t-88.5 77.5t-129.5 28.5q-78 0 -131.5 -32.5t-86 -85t-47 -119 t-14.5 -131.5z" />
<glyph unicode="h" horiz-adv-x="1175" d="M123 0v1462h233v-542h4q43 72 128 119.5t190 47.5q174 0 274.5 -90t100.5 -270v-727h-234v666q-4 125 -53 181t-154 56q-59 0 -106 -21.5t-80 -59.5t-51.5 -89t-18.5 -108v-625h-233z" />
<glyph unicode="i" horiz-adv-x="493" d="M129 0v1059h233v-1059h-233zM129 1241v221h233v-221h-233z" />
<glyph unicode="j" horiz-adv-x="493" d="M-45 -227q23 -4 43 -6.5t37 -2.5q63 0 78.5 39t15.5 117v1139h233v-1149q0 -158 -69.5 -244t-233.5 -86q-35 0 -58.5 2t-45.5 6v185zM129 1241v221h233v-221h-233z" />
<glyph unicode="k" horiz-adv-x="1099" d="M129 0v1462h233v-831l422 428h287l-405 -389l444 -670h-285l-323 514l-140 -135v-379h-233z" />
<glyph unicode="l" horiz-adv-x="493" d="M129 0v1462h233v-1462h-233z" />
<glyph unicode="m" horiz-adv-x="1781" d="M123 0v1059h221v-148h6q27 39 57.5 72t68.5 55.5t87 35.5t113 13q96 0 179 -43t118 -133q59 82 137 129t195 47q168 0 261 -81.5t93 -274.5v-731h-234v618q0 63 -4 115.5t-23.5 90.5t-58.5 58.5t-106 20.5q-119 0 -172 -73.5t-53 -208.5v-621h-234v680q0 111 -40 167 t-146 56q-45 0 -87 -18.5t-74 -53t-51.5 -86t-19.5 -116.5v-629h-233z" />
<glyph unicode="n" horiz-adv-x="1175" d="M123 0v1059h221v-156l4 -4q53 88 139 138t191 50q174 0 274.5 -90t100.5 -270v-727h-234v666q-4 125 -53 181t-154 56q-59 0 -106 -21.5t-80 -59.5t-51.5 -89t-18.5 -108v-625h-233z" />
<glyph unicode="o" horiz-adv-x="1214" d="M74 530q0 121 35.5 223.5t104.5 176.5t168 115.5t226 41.5t226.5 -41.5t168 -115.5t104.5 -176.5t36 -223.5q0 -123 -36 -225t-104.5 -176t-168 -116t-226.5 -42t-226 42t-168 116t-104.5 176.5t-35.5 224.5zM307 530q0 -70 17.5 -136t54.5 -119.5t94 -86t135 -32.5 t135.5 32.5t94 86t54 120t17.5 135.5q0 68 -17.5 135.5t-54 120t-94 85t-135.5 32.5t-135 -32.5t-94 -85t-54.5 -120t-17.5 -135.5z" />
<glyph unicode="p" horiz-adv-x="1251" d="M129 -391v1450h221v-144h4q49 92 137.5 132t190.5 40q125 0 218 -44t154.5 -120.5t92.5 -179t31 -219.5q0 -106 -28 -206.5t-84 -177.5t-142 -123t-203 -46q-51 0 -102.5 9.5t-98.5 30t-87 52t-66 74.5h-5v-528h-233zM354 528q0 -80 19.5 -148.5t58.5 -117.5t93.5 -77.5 t125.5 -28.5q80 0 135.5 32.5t91 85t51 118.5t15.5 136q0 72 -18.5 139.5t-55 120t-92 84t-127.5 31.5q-147 0 -222 -102.5t-75 -272.5z" />
<glyph unicode="q" horiz-adv-x="1251" d="M72 524q0 117 30.5 219.5t92 179t154.5 120.5t218 44q102 0 190.5 -39.5t137.5 -132.5h4v144h221v-1450h-233v528h-4q-29 -43 -68 -74.5t-86 -52t-98 -30t-103 -9.5q-117 0 -202.5 46t-142 123t-84 177.5t-27.5 206.5zM305 528q0 -70 15.5 -136t51.5 -118.5t91 -85 t135 -32.5q152 0 224.5 103t72.5 269q0 174 -75 274.5t-222 100.5q-72 0 -127 -31.5t-92 -84t-55.5 -120t-18.5 -139.5z" />
<glyph unicode="r" horiz-adv-x="720" d="M123 0v1059h219v-205h4q10 43 40 84t72 75t93 54t104 20q41 0 56.5 -2t31.5 -4v-225q-25 4 -50 7t-50 3q-59 0 -111.5 -23.5t-91.5 -69.5t-61.5 -113.5t-22.5 -155.5v-504h-233z" />
<glyph unicode="s" horiz-adv-x="1062" d="M66 340h233q10 -102 77.5 -143t162.5 -41q33 0 74.5 5t78.5 19q36 14 60 42q22 25 22 66v7q-2 45 -32.5 73.5t-79 46t-109.5 30t-125 26.5q-66 14 -126 34.5t-108.5 55.5t-77 89.5t-28.5 133.5q0 86 42 144.5t106.5 94.5t143.5 50t150 14q82 0 157 -17t135.5 -56 t100.5 -101.5t50 -150.5h-244q-16 84 -76.5 112.5t-138.5 28.5q-25 0 -58.5 -4t-63.5 -15.5t-50 -33t-20 -55.5q0 -43 29.5 -70t77.5 -44t109.5 -29.5t127.5 -26.5q63 -14 124.5 -35t109.5 -55.5t78 -88t30 -131.5q0 -94 -43 -159.5t-112 -106.5t-153 -59.5t-165 -18.5 q-100 0 -185.5 22.5t-148 69t-98 115t-37.5 162.5z" />
<glyph unicode="t" horiz-adv-x="681" d="M16 885v174h177v317h233v-317h211v-174h-211v-566q0 -37 3 -63.5t14.5 -44.5t34 -27.5t61.5 -9.5q25 0 49 1t49 7v-180q-39 -4 -76 -8t-76 -4q-92 0 -148 17.5t-88 51t-43 85t-13 116.5v625h-177z" />
<glyph unicode="u" horiz-adv-x="1175" d="M123 387v672h233v-649q0 -139 53.5 -196.5t149.5 -57.5q74 0 123 22.5t80 60t44 91t13 114.5v615h234v-1059h-230v147h-4q-43 -80 -128 -128t-173 -48q-209 0 -302 103.5t-93 312.5z" />
<glyph unicode="v" horiz-adv-x="1062" d="M18 1059h254l269 -813h4l258 813h241l-378 -1059h-263z" />
<glyph unicode="w" horiz-adv-x="1593" d="M27 1059h247l207 -791h4l199 791h236l190 -791h4l215 791h238l-332 -1059h-240l-196 786h-4l-195 -786h-246z" />
<glyph unicode="x" horiz-adv-x="1099" d="M8 0l400 557l-367 502h283l221 -326l231 326h271l-361 -490l406 -569h-281l-268 391l-260 -391h-275z" />
<glyph unicode="y" horiz-adv-x="1062" d="M6 1059h256l277 -791h4l268 791h244l-412 -1116q-29 -72 -56.5 -137.5t-67.5 -115.5t-99.5 -80t-151.5 -30q-82 0 -162 12v197q29 -4 55.5 -9t55.5 -5q41 0 67.5 10t44 29.5t30 46t22.5 61.5l27 82z" />
<glyph unicode="z" horiz-adv-x="1024" d="M45 0v164l586 710h-545v185h860v-164l-606 -711h637v-184h-932z" />
<glyph unicode="{" horiz-adv-x="606" d="M-8 461v184q20 0 53 6t63.5 23.5t53 46.5t22.5 74v422q0 72 29 125t70 87.5t86 51t77 16.5h187v-184h-113q-39 0 -61.5 -13.5t-34.5 -35t-15 -47t-3 -48.5v-399q0 -61 -25 -102t-58.5 -64.5t-69.5 -35t-60 -13.5v-4q25 -2 60.5 -10.5t69 -32t58.5 -67.5t25 -117v-387 q0 -23 3 -48.5t15 -47t34.5 -35t61.5 -13.5h113v-184h-187q-33 0 -77.5 16.5t-85.5 51t-70 88t-29 124.5v406q0 49 -22.5 82t-53 51t-63.5 25.5t-53 7.5z" />
<glyph unicode="|" horiz-adv-x="454" d="M123 -438v2048h209v-2048h-209z" />
<glyph unicode="}" horiz-adv-x="606" d="M-27 -207h113q39 0 61.5 13.5t35 35t15.5 47t3 48.5v399q0 61 24.5 102t58 64.5t69.5 34t61 14.5v4q-25 2 -61 10t-69.5 32t-58 68t-24.5 117v387q0 23 -3 48.5t-15.5 47t-35 35t-61.5 13.5h-113v184h187q33 0 78 -16.5t86 -51t69.5 -88t28.5 -124.5v-406q0 -49 21.5 -82 t52 -51.5t63.5 -25.5t55 -7v-184q-23 0 -55.5 -7.5t-63 -23.5t-52 -45t-21.5 -74v-422q0 -72 -28.5 -125t-69.5 -87.5t-86 -51t-78 -16.5h-187v184z" />
<glyph unicode="~" horiz-adv-x="1228" d="M141 516q16 33 40 64.5t54.5 56.5t70.5 40t91 15q53 0 110.5 -19.5t117.5 -45.5q57 -25 112.5 -49.5t96.5 -24.5q31 0 56 13.5t46.5 32.5t40 44t37.5 49l73 -172q-23 -33 -48 -64.5t-55 -56t-67.5 -40t-85.5 -15.5q-57 0 -107 19.5t-101 48.5q-49 29 -106.5 50t-129.5 21 q-35 0 -60.5 -13t-47 -32.5t-37 -44t-27.5 -49.5z" />
<glyph unicode="&#xa1;" horiz-adv-x="569" d="M147 831v256h275v-256h-275zM158 43l67 637h121l68 -637v-418h-256v418z" />
<glyph unicode="&#xa2;" d="M76 518q0 129 34.5 234.5t98 179.5t149.5 114.5t191 40.5v185h88v-185q86 0 161.5 -26.5t134 -75.5t96.5 -120.5t44 -159.5h-233q-10 88 -65.5 143t-137.5 55v-747q94 16 146.5 77.5t64.5 163.5h233q-35 -195 -144.5 -310.5t-299.5 -115.5v-184h-88v184q-111 0 -199 44 t-149.5 119t-93 174.5t-31.5 209.5zM309 518q0 -61 13.5 -121.5t42 -110.5t73.5 -85t111 -45v747q-68 -6 -114 -43t-73.5 -92t-40 -120.5t-12.5 -129.5z" />
<glyph unicode="&#xa3;" d="M63 653v133h130q-47 57 -72 136t-25 153q0 96 41 174t108.5 133.5t153.5 85t176 29.5q236 0 374 -126t141 -380h-234q-4 66 -19.5 123t-47 99t-84 66t-125.5 24q-94 0 -161 -61.5t-67 -178.5q0 -72 31 -144.5t63 -132.5h302v-133h-252q33 -61 32 -137q0 -55 -16 -103 t-45 -90t-67 -77t-78 -66l4 -4q47 18 92 36.5t96 18.5q53 0 92 -11t74 -23q35 -14 69.5 -25.5t81.5 -11.5q57 0 106.5 20.5t92.5 57.5l105 -158q-78 -66 -153 -90.5t-175 -24.5q-49 0 -99.5 11.5t-103.5 19.5q-51 16 -104.5 28.5t-110.5 12.5q-53 0 -110.5 -18.5 t-96.5 -51.5l-108 166q37 25 76.5 62.5t71.5 82t52.5 92.5t20.5 95q0 53 -11.5 100t-31.5 88h-189z" />
<glyph unicode="&#xa4;" d="M41 299l117 125q-49 55 -76 130t-27 161t24.5 164.5t78.5 130.5l-117 125l117 116l116 -114q51 43 132 68.5t167 25.5q82 0 158 -25.5t123 -66.5l119 116l125 -125l-115 -118q47 -49 71.5 -128t24.5 -165t-25.5 -164t-72.5 -135l113 -121l-113 -113l-117 119 q-51 -49 -129 -75.5t-164 -26.5q-90 0 -168.5 25.5t-132.5 74.5l-114 -119zM276 715q0 -63 23 -118.5t62.5 -96.5t94 -64.5t115.5 -23.5t114.5 24.5t91.5 66.5t59.5 98t21.5 118q0 61 -21.5 115.5t-59.5 96.5t-90 66.5t-114 24.5q-63 0 -117.5 -24.5t-94 -65.5t-62.5 -97.5 t-23 -119.5z" />
<glyph unicode="&#xa5;" d="M-10 1462h260l319 -655l326 655h254l-385 -719h203v-133h-281v-139h281v-133h-281v-338h-233v338h-281v133h281v139h-281v133h201z" />
<glyph unicode="&#xa6;" horiz-adv-x="454" d="M123 -182v512h209v-512h-209zM123 842v512h209v-512h-209z" />
<glyph unicode="&#xa7;" d="M45 639q0 115 59.5 188.5t161.5 116.5q-45 47 -66.5 94t-21.5 113q0 82 36 146.5t92 108.5t129 67.5t147 23.5q88 0 162.5 -26.5t130 -77t87 -122t31.5 -161.5h-221q-4 86 -54 144.5t-138 58.5q-63 0 -115.5 -42t-52.5 -112q0 -49 29.5 -87t76.5 -71.5t108.5 -63.5 t125 -62.5t125 -69.5t110.5 -83t79 -103.5t30 -131.5q0 -49 -17.5 -95t-46 -85t-68.5 -69.5t-85 -44.5q55 -47 83.5 -107.5t28.5 -155.5q0 -86 -33.5 -151.5t-90 -109.5t-129 -66.5t-152.5 -22.5q-94 0 -174 27.5t-138.5 81t-93.5 131.5t-37 180h222q8 -109 59 -172.5 t156 -63.5q78 0 128 38t50 128q0 55 -31 99.5t-80 80t-112.5 68.5t-128.5 68q-68 33 -132.5 71.5t-114.5 86t-82 104.5t-32 131zM266 666q0 -12 3 -30t14.5 -39.5t34 -45t61.5 -45.5l373 -209q53 23 87.5 63.5t34.5 104.5q0 45 -28.5 84t-114.5 86l-340 194q-55 -16 -90 -60 t-35 -103z" />
<glyph unicode="&#xa8;" horiz-adv-x="493" d="M-47 1233v221h233v-221h-233zM305 1233v221h234v-221h-234z" />
<glyph unicode="&#xa9;" horiz-adv-x="1638" d="M68 731q0 172 60 313.5t163.5 241.5t241 155.5t288.5 55.5q150 0 286 -55.5t239.5 -155.5t164 -241.5t60.5 -313.5t-60.5 -313.5t-164 -241.5t-239.5 -155.5t-286 -55.5q-166 0 -304 58.5t-237.5 161t-155.5 242.5t-56 304zM231 731q0 -131 41 -245.5t118 -200.5 t185.5 -136.5t245.5 -50.5q123 0 229.5 46t186.5 130t125 200t45 257q0 139 -45 256t-125 201t-186.5 130t-229.5 46q-125 0 -232.5 -46t-187 -130t-125 -201t-45.5 -256zM412 731q0 92 29.5 173t85 139.5t135 93t180.5 34.5q141 0 242.5 -78.5t121.5 -230.5h-139 q-16 78 -76.5 127t-148.5 49q-66 0 -115 -24.5t-83 -65.5t-51.5 -97t-17.5 -120q0 -68 18.5 -127t54.5 -104t86 -72t112 -27q92 0 151.5 51.5t69.5 131.5h141q-12 -74 -46 -132.5t-81 -99.5t-107.5 -62.5t-127.5 -21.5q-98 0 -178 35t-137.5 97.5t-88 147.5t-30.5 183z" />
<glyph unicode="&#xaa;" horiz-adv-x="778" d="M33 954q0 59 24.5 95t64.5 57.5t89 33t98 19.5q39 6 74 12.5t61.5 13.5t41 19.5t14.5 32.5q0 33 -11.5 51.5t-30 27.5t-40 11t-41.5 2q-59 0 -99 -17.5t-45 -68.5h-174q6 63 37 105.5t76 68t101.5 35.5t113.5 10q53 0 105.5 -11t93.5 -33.5t66.5 -58.5t25.5 -87v-309 q0 -23 6 -35.5t29 -9.5h14t18 2v-140q-16 -6 -46.5 -11t-49.5 -5q-53 0 -85 21.5t-42 78.5q-14 -23 -41.5 -41t-61.5 -31.5t-70 -20.5t-66 -7q-49 0 -94.5 12t-80 36t-55 59.5t-20.5 82.5zM211 965q0 -43 34 -55.5t81 -12.5q31 0 61.5 4t55 16.5t41 33t16.5 55.5v90 q-31 -16 -78 -23.5t-94 -15.5t-82 -26.5t-35 -65.5z" />
<glyph unicode="&#xab;" horiz-adv-x="948" d="M102 442v230l318 252v-211l-195 -156l195 -156v-211zM508 442v230l317 252v-211l-194 -156l194 -156v-211z" />
<glyph unicode="&#xac;" horiz-adv-x="1228" d="M98 621v208h1032v-608h-208v400h-824z" />
<glyph unicode="&#xad;" horiz-adv-x="796" d="M100 446v222h596v-222h-596z" />
<glyph unicode="&#xae;" horiz-adv-x="1638" d="M68 731q0 172 60 313.5t163.5 241.5t241 155.5t288.5 55.5q150 0 286 -55.5t239.5 -155.5t164 -241.5t60.5 -313.5t-60.5 -313.5t-164 -241.5t-239.5 -155.5t-286 -55.5q-166 0 -304 58.5t-237.5 161t-155.5 242.5t-56 304zM231 731q0 -131 41 -245.5t118 -200.5 t185.5 -136.5t245.5 -50.5q123 0 229.5 46t186.5 130t125 200t45 257q0 139 -45 256t-125 201t-186.5 130t-229.5 46q-125 0 -232.5 -46t-187 -130t-125 -201t-45.5 -256zM530 293v848h322q154 0 231.5 -57.5t77.5 -186.5q0 -115 -63.5 -168t-157.5 -63l238 -373h-158 l-219 362h-131v-362h-140zM670 774h155q39 0 75 3t62.5 17.5t43 40t16.5 72.5q0 39 -17.5 61.5t-44 35t-59.5 15.5t-63 3h-168v-248z" />
<glyph unicode="&#xaf;" horiz-adv-x="493" d="M-47 1278v133h590v-133h-590z" />
<glyph unicode="&#xb0;" horiz-adv-x="819" d="M102 1155q0 63 25 119.5t65.5 97.5t97 65.5t120.5 24.5q63 0 119.5 -24.5t97.5 -65.5t65.5 -97t24.5 -120q0 -63 -24.5 -119.5t-65.5 -97.5t-97.5 -65.5t-119.5 -24.5t-120 24.5t-97.5 65.5t-65.5 97.5t-25 119.5zM217 1155q0 -41 15.5 -76t41 -60.5t60.5 -40.5t76 -15 q39 0 74.5 15t61 40.5t41 60.5t15.5 76q0 39 -15.5 75t-41 61.5t-61 41t-74.5 15.5q-41 0 -76 -15.5t-60.5 -41t-41 -61.5t-15.5 -75z" />
<glyph unicode="&#xb1;" horiz-adv-x="1228" d="M98 0v209h1032v-209h-1032zM98 571v209h412v256h209v-256h411v-209h-411v-256h-209v256h-412z" />
<glyph unicode="&#xb2;" horiz-adv-x="737" d="M43 559q2 125 56.5 208t148.5 142q45 31 95 60.5t91 62.5t67.5 72t28.5 88q0 66 -45 96.5t-104 30.5q-41 0 -69.5 -16.5t-45 -43t-25 -60.5t-10.5 -71h-178q0 156 90 245t246 89q63 0 121.5 -15t102.5 -47t70 -83t26 -121q0 -51 -17.5 -93t-47.5 -77t-67.5 -64.5 t-76.5 -54.5q-41 -27 -81 -50t-74 -48t-58.5 -50.5t-34.5 -56.5h436v-143h-645z" />
<glyph unicode="&#xb3;" horiz-adv-x="737" d="M33 858h164q-4 -72 41 -123t131 -51q72 0 123 39t51 106q0 49 -21.5 78t-55.5 44.5t-78 19.5t-89 2v119q39 -2 76 4t65.5 20t47 39t18.5 62q0 27 -13.5 46t-34 31.5t-45 18.5t-48.5 6q-68 0 -111 -44t-39 -112h-164q6 141 90 220t226 79q57 0 111 -12t97 -41t69 -74 t26 -110q0 -66 -33 -114t-98 -71v-4q78 -14 123 -71.5t45 -143.5q0 -68 -27 -120t-73 -87.5t-107.5 -54t-130.5 -18.5q-168 0 -250 84t-86 233z" />
<glyph unicode="&#xb4;" horiz-adv-x="493" d="M92 1206l184 293h277l-291 -293h-170z" />
<glyph unicode="&#xb5;" horiz-adv-x="1175" d="M123 -391v1450h233v-649q0 -139 53.5 -196.5t149.5 -57.5q74 0 123 22.5t80 60t44 91t13 114.5v615h234v-1059h-230v147h-4q-23 -41 -55.5 -72.5t-70.5 -55t-78 -36t-74 -12.5q-47 0 -98.5 16.5t-86.5 57.5v-436h-233z" />
<glyph unicode="&#xb6;" horiz-adv-x="1228" d="M63 1077q0 102 35 176t97.5 120t150.5 67.5t195 21.5h530v-1790h-164v1657h-239v-1657h-164v1033q-100 0 -181 27.5t-138.5 77.5t-89.5 118.5t-32 148.5z" />
<glyph unicode="&#xb7;" horiz-adv-x="569" d="M131 618q0 31 12.5 57.5t34 48t49 34t58.5 12.5t58.5 -12.5t49 -34t33.5 -48t12 -57.5q0 -61 -45 -108t-108 -47t-108.5 47t-45.5 108z" />
<glyph unicode="&#xb8;" horiz-adv-x="493" d="M18 -410l37 82q37 -16 68 -24t65 -8q20 0 43 3t41.5 12t29.5 25.5t11 43.5q0 39 -29.5 58t-64.5 19q-45 0 -80 -20l-45 39l135 180h99l-95 -121l3 -2q12 4 28.5 6t38.5 2q31 0 61.5 -9t55 -28.5t41 -48t16.5 -67.5q0 -53 -22.5 -88t-57.5 -56.5t-79 -33t-89 -11.5 q-57 0 -111.5 11.5t-99.5 35.5z" />
<glyph unicode="&#xb9;" horiz-adv-x="737" d="M74 1182v118q51 0 98 8.5t85 26t63.5 44t35.5 65.5h144v-885h-178v623h-248z" />
<glyph unicode="&#xba;" horiz-adv-x="778" d="M31 1112q0 158 92 254t272 96t272.5 -96t92.5 -254t-92.5 -253t-272.5 -95t-272 95t-92 253zM209 1112q0 -39 11 -77t33.5 -68.5t58.5 -50t83 -19.5q49 0 84 19.5t56.5 50t33 68.5t13.5 77q0 39 -11.5 78t-35 69.5t-58.5 50t-82 19.5t-83 -19.5t-58.5 -50t-33.5 -69.5 t-11 -78z" />
<glyph unicode="&#xbb;" horiz-adv-x="948" d="M123 190v211l194 156l-194 156v211l317 -252v-230zM528 190v211l195 156l-195 156v211l318 -252v-230z" />
<glyph unicode="&#xbc;" horiz-adv-x="1708" d="M76 1182v118q51 0 98 8.5t85 26t63.5 44t35.5 65.5h144v-885h-178v623h-248zM289 -49l858 1532h160l-856 -1532h-162zM895 199v166l379 512h199v-525h96v-153h-96v-199h-179v199h-399zM1051 352h243v324h-4z" />
<glyph unicode="&#xbd;" horiz-adv-x="1708" d="M74 1182v118q51 0 98 8.5t85 26t63.5 44t35.5 65.5h144v-885h-178v623h-248zM281 -49l858 1532h159l-856 -1532h-161zM969 0q0 76 21.5 134.5t55 102.5t77.5 77.5t89 62.5t88 53.5t78 53t56.5 64.5t21.5 85q0 66 -43 101.5t-106 35.5q-43 0 -72 -17.5t-45 -46 t-23.5 -64.5t-9.5 -73h-178q0 160 87 252t249 92q66 0 124 -16t101 -51t68.5 -87t25.5 -122q0 -51 -17.5 -93t-46 -77t-66.5 -63.5t-79 -55.5q-41 -25 -80.5 -48.5t-73.5 -48t-58.5 -51t-34.5 -57.5h436v-143h-645z" />
<glyph unicode="&#xbe;" horiz-adv-x="1708" d="M33 858h164q-4 -72 41 -123t131 -51q72 0 123 39t51 106q0 49 -21.5 78t-55.5 43.5t-78 18.5t-89 2v119q39 -2 76 4t65.5 21t47 40t18.5 62q0 27 -13.5 46t-34 31.5t-45 18.5t-48.5 6q-68 0 -111 -44t-39 -112h-164q6 141 90 220t226 79q57 0 111 -12t97 -41t69 -74 t26 -110q0 -66 -33 -114t-98 -71v-4q78 -14 123 -71.5t45 -143.5q0 -68 -27 -120t-73 -87.5t-107.5 -54t-130.5 -18.5q-168 0 -250 84t-86 233zM401 -49l859 1532h159l-856 -1532h-162zM971 199v166l375 512h202v-525h97v-153h-97v-199h-178v199h-399zM1126 352h244v324h-4z " />
<glyph unicode="&#xbf;" d="M100 -6q0 72 15.5 124t41 90t57.5 67.5t67 58.5q39 33 71.5 63.5t57 68.5t38 89t13.5 125h221q0 -90 -9 -152.5t-29.5 -109.5t-50.5 -83t-71 -71q-33 -29 -62.5 -54.5t-53 -54t-37 -65.5t-13.5 -88q0 -59 20.5 -100t51.5 -66.5t65.5 -38t63.5 -12.5q127 0 187.5 82 t60.5 213h233q0 -109 -33.5 -199t-98 -154.5t-156 -100.5t-203.5 -36q-94 0 -175 28t-141.5 79t-95.5 126t-35 171zM430 831v256h275v-256h-275z" />
<glyph unicode="&#xc0;" horiz-adv-x="1366" d="M-14 0l561 1462h272l563 -1462h-274l-137 387h-584l-137 -387h-264zM351 1896h274l186 -293h-170zM457 582h446l-219 628h-6z" />
<glyph unicode="&#xc1;" horiz-adv-x="1366" d="M-14 0l561 1462h272l563 -1462h-274l-137 387h-584l-137 -387h-264zM457 582h446l-219 628h-6zM561 1603l184 293h277l-291 -293h-170z" />
<glyph unicode="&#xc2;" horiz-adv-x="1366" d="M-14 0l561 1462h272l563 -1462h-274l-137 387h-584l-137 -387h-264zM348 1603l219 293h227l222 -293h-191l-145 185l-144 -185h-188zM457 582h446l-219 628h-6z" />
<glyph unicode="&#xc3;" horiz-adv-x="1366" d="M-14 0l561 1462h272l563 -1462h-274l-137 387h-584l-137 -387h-264zM323 1628q6 39 22.5 80t43 74.5t63.5 55t84 21.5q39 0 71 -7t95 -34q43 -18 70.5 -27.5t56.5 -9.5q45 0 68.5 25t34.5 66h114q-8 -49 -23.5 -92.5t-43.5 -73.5q-27 -33 -66 -51.5t-94 -18.5 q-35 0 -74 11.5t-78 27.5q-47 20 -75.5 28.5t-63.5 8.5q-37 0 -58.5 -21.5t-29.5 -62.5h-117zM457 582h446l-219 628h-6z" />
<glyph unicode="&#xc4;" horiz-adv-x="1366" d="M-14 0l561 1462h272l563 -1462h-274l-137 387h-584l-137 -387h-264zM389 1630v221h233v-221h-233zM457 582h446l-219 628h-6zM741 1630v221h234v-221h-234z" />
<glyph unicode="&#xc5;" horiz-adv-x="1366" d="M-14 0l561 1462h272l563 -1462h-274l-137 387h-584l-137 -387h-264zM457 582h446l-219 628h-6zM467 1749q0 47 17.5 86t47 68t67.5 43t81 14t81 -14t68.5 -43t47 -68t16.5 -86t-16.5 -86t-47 -66.5t-68.5 -43t-81 -15.5t-82 15.5t-68.5 43t-46 66.5t-16.5 86zM557 1749 q0 -53 36 -89t87 -36q53 0 88 36t35 89q0 55 -35 90t-88 35q-51 0 -87 -35t-36 -90z" />
<glyph unicode="&#xc6;" horiz-adv-x="1972" d="M-14 0l727 1462h1179v-221h-712v-383h667v-209h-667v-428h725v-221h-969v375h-490l-176 -375h-284zM541 569h395v672h-74z" />
<glyph unicode="&#xc7;" horiz-adv-x="1478" d="M78 731q0 156 48 295t138 243.5t220 166t294 61.5q123 0 231.5 -33.5t191.5 -98.5t134 -157t64 -211h-256q-16 63 -45 116.5t-74 92.5t-105.5 60.5t-140.5 21.5q-117 0 -201.5 -47t-138 -126t-79 -179t-25.5 -205q0 -104 25.5 -204.5t79 -179.5t138.5 -126t201 -47 q86 0 151.5 29.5t113 82t74 122t34.5 149.5h250q-8 -129 -55.5 -237.5t-127 -186.5t-188 -121t-237.5 -45l-66 -86v-4q12 4 28.5 5t39.5 1q31 0 61.5 -9t55 -27.5t41 -47t16.5 -67.5q0 -53 -22.5 -88t-57.5 -56.5t-79 -31t-89 -9.5q-47 0 -108.5 10.5t-102.5 32.5l37 82 q33 -10 65.5 -21t67.5 -11q20 0 42.5 3t41 12t30 25.5t11.5 43.5q0 39 -30 58t-64 19q-45 0 -80 -20l-45 39l112 149q-145 14 -260.5 80t-195.5 169.5t-122 234.5t-42 278z" />
<glyph unicode="&#xc8;" horiz-adv-x="1290" d="M156 0v1462h1052v-221h-796v-383h737v-209h-737v-428h811v-221h-1067zM387 1896h274l186 -293h-170z" />
<glyph unicode="&#xc9;" horiz-adv-x="1290" d="M156 0v1462h1052v-221h-796v-383h737v-209h-737v-428h811v-221h-1067zM567 1603l184 293h277l-291 -293h-170z" />
<glyph unicode="&#xca;" horiz-adv-x="1290" d="M156 0v1462h1052v-221h-796v-383h737v-209h-737v-428h811v-221h-1067zM350 1603l219 293h227l222 -293h-191l-145 185l-144 -185h-188z" />
<glyph unicode="&#xcb;" horiz-adv-x="1290" d="M156 0v1462h1052v-221h-796v-383h737v-209h-737v-428h811v-221h-1067zM395 1630v221h233v-221h-233zM747 1630v221h234v-221h-234z" />
<glyph unicode="&#xcc;" horiz-adv-x="569" d="M-49 1896h274l186 -293h-170zM156 0v1462h256v-1462h-256z" />
<glyph unicode="&#xcd;" horiz-adv-x="569" d="M156 0v1462h256v-1462h-256zM158 1603l184 293h277l-291 -293h-170z" />
<glyph unicode="&#xce;" horiz-adv-x="569" d="M-49 1603l219 293h227l222 -293h-191l-145 185l-144 -185h-188zM156 0v1462h256v-1462h-256z" />
<glyph unicode="&#xcf;" horiz-adv-x="569" d="M-8 1630v221h233v-221h-233zM156 0v1462h256v-1462h-256zM344 1630v221h234v-221h-234z" />
<glyph unicode="&#xd0;" horiz-adv-x="1478" d="M18 649v209h138v604h606q168 0 291 -57t200.5 -156.5t115.5 -232.5t38 -285t-38 -285t-115.5 -232t-200.5 -156.5t-291 -57.5h-606v649h-138zM412 209h252q150 0 245 40t149 110.5t73.5 166t19.5 205.5q0 111 -19.5 206t-73.5 166t-149.5 110.5t-244.5 39.5h-252v-395 h399v-209h-399v-440z" />
<glyph unicode="&#xd1;" horiz-adv-x="1478" d="M145 0v1462h271l667 -1077h4v1077h244v-1462h-270l-666 1075h-6v-1075h-244zM379 1628q6 39 22.5 80t43 74.5t63.5 55t84 21.5q39 0 71 -7t95 -34q43 -18 70.5 -27.5t56.5 -9.5q45 0 68.5 25t34.5 66h114q-8 -49 -23.5 -92.5t-43.5 -73.5q-27 -33 -66 -51.5t-94 -18.5 q-35 0 -74 11.5t-78 27.5q-47 20 -75.5 28.5t-63.5 8.5q-37 0 -58.5 -21.5t-29.5 -62.5h-117z" />
<glyph unicode="&#xd2;" horiz-adv-x="1556" d="M78 731q0 156 48 295t138 243.5t220 166t294 61.5t294 -61.5t220 -166t138.5 -243.5t48.5 -295q0 -158 -48.5 -297t-138.5 -243.5t-220 -165t-294 -60.5t-294 60.5t-220 165t-138 243.5t-48 297zM334 731q0 -104 25.5 -204.5t79 -179.5t138.5 -126t201 -47q117 0 202 47 t138 126t79 179.5t26 204.5t-26 204.5t-79 179.5t-138 126t-202 47t-201.5 -47t-138 -126t-79 -179t-25.5 -205zM387 1896h274l186 -293h-170z" />
<glyph unicode="&#xd3;" horiz-adv-x="1556" d="M78 731q0 156 48 295t138 243.5t220 166t294 61.5t294 -61.5t220 -166t138.5 -243.5t48.5 -295q0 -158 -48.5 -297t-138.5 -243.5t-220 -165t-294 -60.5t-294 60.5t-220 165t-138 243.5t-48 297zM334 731q0 -104 25.5 -204.5t79 -179.5t138.5 -126t201 -47q117 0 202 47 t138 126t79 179.5t26 204.5t-26 204.5t-79 179.5t-138 126t-202 47t-201.5 -47t-138 -126t-79 -179t-25.5 -205zM682 1603l184 293h277l-291 -293h-170z" />
<glyph unicode="&#xd4;" horiz-adv-x="1556" d="M78 731q0 156 48 295t138 243.5t220 166t294 61.5t294 -61.5t220 -166t138.5 -243.5t48.5 -295q0 -158 -48.5 -297t-138.5 -243.5t-220 -165t-294 -60.5t-294 60.5t-220 165t-138 243.5t-48 297zM334 731q0 -104 25.5 -204.5t79 -179.5t138.5 -126t201 -47q117 0 202 47 t138 126t79 179.5t26 204.5t-26 204.5t-79 179.5t-138 126t-202 47t-201.5 -47t-138 -126t-79 -179t-25.5 -205zM451 1603l219 293h227l222 -293h-191l-145 185l-144 -185h-188z" />
<glyph unicode="&#xd5;" horiz-adv-x="1556" d="M78 731q0 156 48 295t138 243.5t220 166t294 61.5t294 -61.5t220 -166t138.5 -243.5t48.5 -295q0 -158 -48.5 -297t-138.5 -243.5t-220 -165t-294 -60.5t-294 60.5t-220 165t-138 243.5t-48 297zM334 731q0 -104 25.5 -204.5t79 -179.5t138.5 -126t201 -47q117 0 202 47 t138 126t79 179.5t26 204.5t-26 204.5t-79 179.5t-138 126t-202 47t-201.5 -47t-138 -126t-79 -179t-25.5 -205zM426 1628q6 39 22.5 80t43 74.5t63.5 55t84 21.5q39 0 71 -7t95 -34q43 -18 70.5 -27.5t56.5 -9.5q45 0 68.5 25t34.5 66h114q-8 -49 -23.5 -92.5t-43.5 -73.5 q-27 -33 -66 -51.5t-94 -18.5q-35 0 -74 11.5t-78 27.5q-47 20 -75.5 28.5t-63.5 8.5q-37 0 -58.5 -21.5t-29.5 -62.5h-117z" />
<glyph unicode="&#xd6;" horiz-adv-x="1556" d="M78 731q0 156 48 295t138 243.5t220 166t294 61.5t294 -61.5t220 -166t138.5 -243.5t48.5 -295q0 -158 -48.5 -297t-138.5 -243.5t-220 -165t-294 -60.5t-294 60.5t-220 165t-138 243.5t-48 297zM334 731q0 -104 25.5 -204.5t79 -179.5t138.5 -126t201 -47q117 0 202 47 t138 126t79 179.5t26 204.5t-26 204.5t-79 179.5t-138 126t-202 47t-201.5 -47t-138 -126t-79 -179t-25.5 -205zM488 1630v221h233v-221h-233zM840 1630v221h234v-221h-234z" />
<glyph unicode="&#xd7;" horiz-adv-x="1228" d="M113 162l356 356l-356 356l176 115l323 -325l328 325l176 -115l-358 -356l358 -356l-176 -115l-328 328l-323 -328z" />
<glyph unicode="&#xd8;" horiz-adv-x="1556" d="M78 731q0 156 48 295t138 243.5t220 166t294 61.5q141 0 255 -44t200 -122l153 172l89 -73l-162 -183q80 -104 123 -235t43 -281q0 -158 -48.5 -297t-138.5 -243.5t-220 -165t-294 -60.5q-141 0 -254.5 45t-199.5 123l-156 -174l-86 74l162 184q-80 102 -123 233.5 t-43 280.5zM334 731q0 -90 17.5 -174t56.5 -156l673 758q-51 59 -125.5 94t-177.5 35q-117 0 -201.5 -47t-138 -126t-79 -179t-25.5 -205zM475 303q55 -59 130 -94t173 -35q117 0 202 47t138 126t79 179.5t26 204.5q0 88 -17.5 173t-58.5 157z" />
<glyph unicode="&#xd9;" horiz-adv-x="1478" d="M139 526v936h256v-852q0 -74 7.5 -149.5t41 -136t102 -99.5t193.5 -39t193.5 39t102.5 99.5t41 136.5t7 149v852h256v-936q0 -141 -43 -245.5t-121.5 -175t-189.5 -105.5t-246 -35t-245.5 35t-189.5 105.5t-122 175t-43 245.5zM390 1896h274l186 -293h-170z" />
<glyph unicode="&#xda;" horiz-adv-x="1478" d="M139 526v936h256v-852q0 -74 7.5 -149.5t41 -136t102 -99.5t193.5 -39t193.5 39t102.5 99.5t41 136.5t7 149v852h256v-936q0 -141 -43 -245.5t-121.5 -175t-189.5 -105.5t-246 -35t-245.5 35t-189.5 105.5t-122 175t-43 245.5zM631 1603l184 293h277l-291 -293h-170z" />
<glyph unicode="&#xdb;" horiz-adv-x="1478" d="M139 526v936h256v-852q0 -74 7.5 -149.5t41 -136t102 -99.5t193.5 -39t193.5 39t102.5 99.5t41 136.5t7 149v852h256v-936q0 -141 -43 -245.5t-121.5 -175t-189.5 -105.5t-246 -35t-245.5 35t-189.5 105.5t-122 175t-43 245.5zM410 1603l219 293h227l222 -293h-191 l-145 185l-144 -185h-188z" />
<glyph unicode="&#xdc;" horiz-adv-x="1478" d="M139 526v936h256v-852q0 -74 7.5 -149.5t41 -136t102 -99.5t193.5 -39t193.5 39t102.5 99.5t41 136.5t7 149v852h256v-936q0 -141 -43 -245.5t-121.5 -175t-189.5 -105.5t-246 -35t-245.5 35t-189.5 105.5t-122 175t-43 245.5zM445 1630v221h233v-221h-233zM797 1630v221 h234v-221h-234z" />
<glyph unicode="&#xdd;" horiz-adv-x="1327" d="M-12 1462h297l387 -655l381 655h286l-546 -889v-573h-256v573zM579 1603l184 293h277l-291 -293h-170z" />
<glyph unicode="&#xde;" horiz-adv-x="1366" d="M156 0v1462h256v-221h389q156 0 254 -45t151.5 -112.5t72.5 -147.5t19 -148t-19 -146.5t-72.5 -146t-152 -111.5t-253.5 -44h-389v-340h-256zM412 549h374q43 0 88.5 12t83 40t61 74t23.5 116q0 72 -20.5 118.5t-55 74.5t-79.5 38t-96 10h-379v-483z" />
<glyph unicode="&#xdf;" horiz-adv-x="1175" d="M129 0v1071q0 100 34 179t93 134.5t141 84t181 28.5q82 0 160.5 -24.5t140 -71.5t98.5 -115.5t37 -157.5q0 -104 -51.5 -190t-157.5 -119v-4q63 -8 114.5 -40t87 -80t54 -108.5t18.5 -121.5q0 -106 -32.5 -196.5t-93 -157t-147.5 -103.5t-196 -37q-57 0 -114 6v185 q16 -4 33.5 -5t45.5 -1q90 0 144.5 30.5t82 76.5t36 102.5t8.5 109.5q0 76 -31 124t-82 77q-47 31 -111.5 41t-123.5 10v154q61 0 115.5 12t86.5 41q37 29 58.5 71t21.5 101q0 207 -207 207q-35 0 -72.5 -11.5t-68.5 -41t-50.5 -81t-19.5 -132.5v-1047h-233z" />
<glyph unicode="&#xe0;" d="M66 281q0 98 35.5 159.5t94 96t131 50t146.5 23.5q63 12 120.5 17.5t101.5 17.5t70 38t26 77q0 45 -21.5 73.5t-53.5 44t-71 20.5t-74 5q-98 0 -161.5 -41t-71.5 -127h-234q6 102 49.5 170t110 109t150.5 57t172 16q78 0 153.5 -16t136 -53t97.5 -95.5t37 -142.5v-544 q0 -43 11 -61.5t44 -18.5h25q14 0 32 4v-162q-12 -4 -31.5 -9t-40 -9.5t-41 -6.5t-34.5 -2q-72 0 -119 29t-61 100q-70 -68 -171.5 -98.5t-195.5 -30.5q-72 0 -137.5 19.5t-115.5 57.5t-79.5 96.5t-29.5 136.5zM265 1499h274l186 -293h-170zM299 291q0 -39 22.5 -65.5 t54.5 -42t69.5 -21.5t68.5 -6q39 0 84 10t85 34.5t66.5 62.5t26.5 93v174q-53 -35 -131 -42t-156 -21q-37 -6 -71.5 -17.5t-61 -31t-42 -51t-15.5 -76.5z" />
<glyph unicode="&#xe1;" d="M66 281q0 98 35.5 159.5t94 96t131 50t146.5 23.5q63 12 120.5 17.5t101.5 17.5t70 38t26 77q0 45 -21.5 73.5t-53.5 44t-71 20.5t-74 5q-98 0 -161.5 -41t-71.5 -127h-234q6 102 49.5 170t110 109t150.5 57t172 16q78 0 153.5 -16t136 -53t97.5 -95.5t37 -142.5v-544 q0 -43 11 -61.5t44 -18.5h25q14 0 32 4v-162q-12 -4 -31.5 -9t-40 -9.5t-41 -6.5t-34.5 -2q-72 0 -119 29t-61 100q-70 -68 -171.5 -98.5t-195.5 -30.5q-72 0 -137.5 19.5t-115.5 57.5t-79.5 96.5t-29.5 136.5zM299 291q0 -39 22.5 -65.5t54.5 -42t69.5 -21.5t68.5 -6 q39 0 84 10t85 34.5t66.5 62.5t26.5 93v174q-53 -35 -131 -42t-156 -21q-37 -6 -71.5 -17.5t-61 -31t-42 -51t-15.5 -76.5zM459 1206l184 293h277l-291 -293h-170z" />
<glyph unicode="&#xe2;" d="M66 281q0 98 35.5 159.5t94 96t131 50t146.5 23.5q63 12 120.5 17.5t101.5 17.5t70 38t26 77q0 45 -21.5 73.5t-53.5 44t-71 20.5t-74 5q-98 0 -161.5 -41t-71.5 -127h-234q6 102 49.5 170t110 109t150.5 57t172 16q78 0 153.5 -16t136 -53t97.5 -95.5t37 -142.5v-544 q0 -43 11 -61.5t44 -18.5h25q14 0 32 4v-162q-12 -4 -31.5 -9t-40 -9.5t-41 -6.5t-34.5 -2q-72 0 -119 29t-61 100q-70 -68 -171.5 -98.5t-195.5 -30.5q-72 0 -137.5 19.5t-115.5 57.5t-79.5 96.5t-29.5 136.5zM250 1206l219 293h227l222 -293h-191l-145 185l-144 -185h-188 zM299 291q0 -39 22.5 -65.5t54.5 -42t69.5 -21.5t68.5 -6q39 0 84 10t85 34.5t66.5 62.5t26.5 93v174q-53 -35 -131 -42t-156 -21q-37 -6 -71.5 -17.5t-61 -31t-42 -51t-15.5 -76.5z" />
<glyph unicode="&#xe3;" d="M66 281q0 98 35.5 159.5t94 96t131 50t146.5 23.5q63 12 120.5 17.5t101.5 17.5t70 38t26 77q0 45 -21.5 73.5t-53.5 44t-71 20.5t-74 5q-98 0 -161.5 -41t-71.5 -127h-234q6 102 49.5 170t110 109t150.5 57t172 16q78 0 153.5 -16t136 -53t97.5 -95.5t37 -142.5v-544 q0 -43 11 -61.5t44 -18.5h25q14 0 32 4v-162q-12 -4 -31.5 -9t-40 -9.5t-41 -6.5t-34.5 -2q-72 0 -119 29t-61 100q-70 -68 -171.5 -98.5t-195.5 -30.5q-72 0 -137.5 19.5t-115.5 57.5t-79.5 96.5t-29.5 136.5zM221 1231q6 39 22.5 80t43 74.5t63.5 55t84 21.5q39 0 71 -7 t95 -34q43 -18 70.5 -27.5t56.5 -9.5q45 0 68.5 25t34.5 66h114q-8 -49 -23.5 -92.5t-43.5 -73.5q-27 -33 -66 -51.5t-94 -18.5q-35 0 -74 11.5t-78 27.5q-47 20 -75.5 28.5t-63.5 8.5q-37 0 -58.5 -21.5t-29.5 -62.5h-117zM299 291q0 -39 22.5 -65.5t54.5 -42t69.5 -21.5 t68.5 -6q39 0 84 10t85 34.5t66.5 62.5t26.5 93v174q-53 -35 -131 -42t-156 -21q-37 -6 -71.5 -17.5t-61 -31t-42 -51t-15.5 -76.5z" />
<glyph unicode="&#xe4;" d="M66 281q0 98 35.5 159.5t94 96t131 50t146.5 23.5q63 12 120.5 17.5t101.5 17.5t70 38t26 77q0 45 -21.5 73.5t-53.5 44t-71 20.5t-74 5q-98 0 -161.5 -41t-71.5 -127h-234q6 102 49.5 170t110 109t150.5 57t172 16q78 0 153.5 -16t136 -53t97.5 -95.5t37 -142.5v-544 q0 -43 11 -61.5t44 -18.5h25q14 0 32 4v-162q-12 -4 -31.5 -9t-40 -9.5t-41 -6.5t-34.5 -2q-72 0 -119 29t-61 100q-70 -68 -171.5 -98.5t-195.5 -30.5q-72 0 -137.5 19.5t-115.5 57.5t-79.5 96.5t-29.5 136.5zM285 1233v221h233v-221h-233zM299 291q0 -39 22.5 -65.5 t54.5 -42t69.5 -21.5t68.5 -6q39 0 84 10t85 34.5t66.5 62.5t26.5 93v174q-53 -35 -131 -42t-156 -21q-37 -6 -71.5 -17.5t-61 -31t-42 -51t-15.5 -76.5zM637 1233v221h234v-221h-234z" />
<glyph unicode="&#xe5;" d="M66 281q0 98 35.5 159.5t94 96t131 50t146.5 23.5q63 12 120.5 17.5t101.5 17.5t70 38t26 77q0 45 -21.5 73.5t-53.5 44t-71 20.5t-74 5q-98 0 -161.5 -41t-71.5 -127h-234q6 102 49.5 170t110 109t150.5 57t172 16q78 0 153.5 -16t136 -53t97.5 -95.5t37 -142.5v-544 q0 -43 11 -61.5t44 -18.5h25q14 0 32 4v-162q-12 -4 -31.5 -9t-40 -9.5t-41 -6.5t-34.5 -2q-72 0 -119 29t-61 100q-70 -68 -171.5 -98.5t-195.5 -30.5q-72 0 -137.5 19.5t-115.5 57.5t-79.5 96.5t-29.5 136.5zM299 291q0 -39 22.5 -65.5t54.5 -42t69.5 -21.5t68.5 -6 q39 0 84 10t85 34.5t66.5 62.5t26.5 93v174q-53 -35 -131 -42t-156 -21q-37 -6 -71.5 -17.5t-61 -31t-42 -51t-15.5 -76.5zM365 1380q0 47 17.5 86t47 68t67.5 43t81 14t81 -14t68.5 -43t47 -68t16.5 -86t-16.5 -86t-47 -66.5t-68.5 -43t-81 -15.5t-82 15.5t-68.5 43 t-46 66.5t-16.5 86zM455 1380q0 -53 36 -89t87 -36q53 0 88 36t35 89q0 55 -35 90t-88 35q-51 0 -87 -35t-36 -90z" />
<glyph unicode="&#xe6;" horiz-adv-x="1820" d="M66 281q0 98 35.5 159.5t94 96t131 50t146.5 23.5q63 12 118.5 17.5t96.5 17.5t65.5 38t24.5 77q0 45 -19.5 73.5t-49 44t-66.5 20.5t-72 5q-98 0 -161.5 -41t-71.5 -127h-234q6 102 49.5 170t110 109t148.5 57t168 16q49 0 100 -5t98 -20t88 -44t72 -74 q59 78 149.5 110.5t186.5 32.5q135 0 232.5 -47t157.5 -130t85 -196.5t16 -244.5h-768q0 -61 15.5 -117.5t49.5 -99.5t87 -69.5t125 -26.5q94 0 157.5 47t92.5 131h233q-45 -170 -174 -266.5t-305 -96.5q-119 0 -223.5 43t-165.5 152q-70 -104 -187.5 -149.5t-252.5 -45.5 q-80 0 -150 19.5t-122 57.5t-81.5 96.5t-29.5 136.5zM299 291q0 -41 19.5 -66.5t50 -41t68.5 -21.5t75 -6q49 0 96 13t84 41t60.5 66.5t23.5 92.5v157q-18 -18 -50 -26t-70 -13.5t-81 -9.5t-83 -10q-39 -6 -74 -17.5t-61.5 -31t-42 -51t-15.5 -76.5zM997 623h535 q2 127 -68.5 203.5t-199.5 76.5q-61 0 -109.5 -22.5t-82.5 -61.5t-52.5 -89t-22.5 -107z" />
<glyph unicode="&#xe7;" d="M72 518q0 119 32.5 223.5t98 181t163 120.5t228.5 44q92 0 175 -23.5t147.5 -70.5t105.5 -118.5t49 -169.5h-233q-14 98 -79 148t-163 50q-45 0 -96 -15.5t-94.5 -57.5t-72 -116.5t-28.5 -195.5q0 -66 15.5 -131t49 -116.5t87 -83t129.5 -31.5q102 0 168.5 63.5 t83.5 177.5h233q-33 -207 -158 -317q-104 -92 -270 -107l-74 -94l2 -2q12 4 28.5 6t39.5 2q31 0 61.5 -9t55 -28.5t41 -48t16.5 -67.5q0 -53 -22.5 -88t-57.5 -56.5t-79 -33t-89 -11.5q-57 0 -111.5 11.5t-99.5 35.5l37 82q37 -16 67.5 -24t65.5 -8q20 0 43 3t41.5 12 t29.5 25.5t11 43.5q0 39 -29.5 58t-64.5 19q-45 0 -80 -20l-45 39l115 153q-100 6 -180 39q-94 43 -160 116t-99.5 173t-33.5 217z" />
<glyph unicode="&#xe8;" d="M72 528q0 113 35.5 214.5t102 178t161 121.5t213.5 45q125 0 224 -52t164.5 -138t95.5 -197.5t15 -230.5h-778q0 -61 17.5 -118.5t52.5 -100.5t88 -68.5t127 -25.5q102 0 164.5 44t93.5 132h221q-18 -86 -63 -153.5t-108.5 -114t-142.5 -70t-165 -23.5q-125 0 -221.5 41 t-163 115t-100 176.5t-33.5 224.5zM240 1499h274l186 -293h-170zM305 623h545q-4 55 -23.5 106t-53.5 89t-82 61.5t-107 23.5q-61 0 -111.5 -21.5t-86.5 -59.5t-57.5 -89t-23.5 -110z" />
<glyph unicode="&#xe9;" d="M72 528q0 113 35.5 214.5t102 178t161 121.5t213.5 45q125 0 224 -52t164.5 -138t95.5 -197.5t15 -230.5h-778q0 -61 17.5 -118.5t52.5 -100.5t88 -68.5t127 -25.5q102 0 164.5 44t93.5 132h221q-18 -86 -63 -153.5t-108.5 -114t-142.5 -70t-165 -23.5q-125 0 -221.5 41 t-163 115t-100 176.5t-33.5 224.5zM305 623h545q-4 55 -23.5 106t-53.5 89t-82 61.5t-107 23.5q-61 0 -111.5 -21.5t-86.5 -59.5t-57.5 -89t-23.5 -110zM489 1206l184 293h277l-291 -293h-170z" />
<glyph unicode="&#xea;" d="M72 528q0 113 35.5 214.5t102 178t161 121.5t213.5 45q125 0 224 -52t164.5 -138t95.5 -197.5t15 -230.5h-778q0 -61 17.5 -118.5t52.5 -100.5t88 -68.5t127 -25.5q102 0 164.5 44t93.5 132h221q-18 -86 -63 -153.5t-108.5 -114t-142.5 -70t-165 -23.5q-125 0 -221.5 41 t-163 115t-100 176.5t-33.5 224.5zM254 1206l219 293h227l222 -293h-191l-145 185l-144 -185h-188zM305 623h545q-4 55 -23.5 106t-53.5 89t-82 61.5t-107 23.5q-61 0 -111.5 -21.5t-86.5 -59.5t-57.5 -89t-23.5 -110z" />
<glyph unicode="&#xeb;" d="M72 528q0 113 35.5 214.5t102 178t161 121.5t213.5 45q125 0 224 -52t164.5 -138t95.5 -197.5t15 -230.5h-778q0 -61 17.5 -118.5t52.5 -100.5t88 -68.5t127 -25.5q102 0 164.5 44t93.5 132h221q-18 -86 -63 -153.5t-108.5 -114t-142.5 -70t-165 -23.5q-125 0 -221.5 41 t-163 115t-100 176.5t-33.5 224.5zM291 1233v221h233v-221h-233zM305 623h545q-4 55 -23.5 106t-53.5 89t-82 61.5t-107 23.5q-61 0 -111.5 -21.5t-86.5 -59.5t-57.5 -89t-23.5 -110zM643 1233v221h234v-221h-234z" />
<glyph unicode="&#xec;" horiz-adv-x="493" d="M-94 1499h274l186 -293h-170zM129 0v1059h233v-1059h-233z" />
<glyph unicode="&#xed;" horiz-adv-x="493" d="M129 0v1059h233v-1059h-233zM129 1206l184 293h277l-291 -293h-170z" />
<glyph unicode="&#xee;" horiz-adv-x="493" d="M-86 1206l219 293h227l222 -293h-191l-145 185l-144 -185h-188zM129 0v1059h233v-1059h-233z" />
<glyph unicode="&#xef;" horiz-adv-x="493" d="M-45 1233v221h233v-221h-233zM129 0v1059h233v-1059h-233zM307 1233v221h234v-221h-234z" />
<glyph unicode="&#xf0;" horiz-adv-x="1214" d="M86 516q0 100 32 194.5t91 166t143 115.5t191 44q86 0 154.5 -20.5t138.5 -69.5h4q-35 80 -95.5 146.5t-126.5 121.5l-221 -106l-102 100l197 95q-47 20 -90.5 38.5t-84.5 30.5l156 125q113 -37 213 -102l215 102l100 -100l-192 -92q154 -127 235.5 -300.5t81.5 -371.5 q0 -135 -29.5 -256t-96 -211t-171 -142.5t-254.5 -52.5q-117 0 -208 40t-153 113t-95 172t-33 220zM319 502q0 -70 15.5 -132.5t49.5 -110.5t84 -75.5t122 -27.5q70 0 126 29.5t96 77.5t60.5 110.5t20.5 128.5t-16.5 129t-50 112.5t-87 79t-127.5 29.5q-82 0 -137 -28.5 t-90 -76t-50.5 -112t-15.5 -133.5z" />
<glyph unicode="&#xf1;" horiz-adv-x="1175" d="M123 0v1059h221v-156l4 -4q53 88 139 138t191 50q174 0 274.5 -90t100.5 -270v-727h-234v666q-4 125 -53 181t-154 56q-59 0 -106 -21.5t-80 -59.5t-51.5 -89t-18.5 -108v-625h-233zM225 1231q6 39 22.5 80t43 74.5t63.5 55t84 21.5q39 0 71 -7t95 -34q43 -18 70.5 -27.5 t56.5 -9.5q45 0 68.5 25t34.5 66h114q-8 -49 -23.5 -92.5t-43.5 -73.5q-27 -33 -66 -51.5t-94 -18.5q-35 0 -74 11.5t-78 27.5q-47 20 -75.5 28.5t-63.5 8.5q-37 0 -58.5 -21.5t-29.5 -62.5h-117z" />
<glyph unicode="&#xf2;" horiz-adv-x="1214" d="M74 530q0 121 35.5 223.5t104.5 176.5t168 115.5t226 41.5t226.5 -41.5t168 -115.5t104.5 -176.5t36 -223.5q0 -123 -36 -225t-104.5 -176t-168 -116t-226.5 -42t-226 42t-168 116t-104.5 176.5t-35.5 224.5zM254 1499h274l186 -293h-170zM307 530q0 -70 17.5 -136 t54.5 -119.5t94 -86t135 -32.5t135.5 32.5t94 86t54 120t17.5 135.5q0 68 -17.5 135.5t-54 120t-94 85t-135.5 32.5t-135 -32.5t-94 -85t-54.5 -120t-17.5 -135.5z" />
<glyph unicode="&#xf3;" horiz-adv-x="1214" d="M74 530q0 121 35.5 223.5t104.5 176.5t168 115.5t226 41.5t226.5 -41.5t168 -115.5t104.5 -176.5t36 -223.5q0 -123 -36 -225t-104.5 -176t-168 -116t-226.5 -42t-226 42t-168 116t-104.5 176.5t-35.5 224.5zM307 530q0 -70 17.5 -136t54.5 -119.5t94 -86t135 -32.5 t135.5 32.5t94 86t54 120t17.5 135.5q0 68 -17.5 135.5t-54 120t-94 85t-135.5 32.5t-135 -32.5t-94 -85t-54.5 -120t-17.5 -135.5zM491 1206l184 293h277l-291 -293h-170z" />
<glyph unicode="&#xf4;" horiz-adv-x="1214" d="M74 530q0 121 35.5 223.5t104.5 176.5t168 115.5t226 41.5t226.5 -41.5t168 -115.5t104.5 -176.5t36 -223.5q0 -123 -36 -225t-104.5 -176t-168 -116t-226.5 -42t-226 42t-168 116t-104.5 176.5t-35.5 224.5zM279 1206l219 293h227l222 -293h-191l-145 185l-144 -185 h-188zM307 530q0 -70 17.5 -136t54.5 -119.5t94 -86t135 -32.5t135.5 32.5t94 86t54 120t17.5 135.5q0 68 -17.5 135.5t-54 120t-94 85t-135.5 32.5t-135 -32.5t-94 -85t-54.5 -120t-17.5 -135.5z" />
<glyph unicode="&#xf5;" horiz-adv-x="1214" d="M74 530q0 121 35.5 223.5t104.5 176.5t168 115.5t226 41.5t226.5 -41.5t168 -115.5t104.5 -176.5t36 -223.5q0 -123 -36 -225t-104.5 -176t-168 -116t-226.5 -42t-226 42t-168 116t-104.5 176.5t-35.5 224.5zM252 1231q6 39 22.5 80t43 74.5t63.5 55t84 21.5q39 0 71 -7 t95 -34q43 -18 70.5 -27.5t56.5 -9.5q45 0 68.5 25t34.5 66h114q-8 -49 -23.5 -92.5t-43.5 -73.5q-27 -33 -66 -51.5t-94 -18.5q-35 0 -74 11.5t-78 27.5q-47 20 -75.5 28.5t-63.5 8.5q-37 0 -58.5 -21.5t-29.5 -62.5h-117zM307 530q0 -70 17.5 -136t54.5 -119.5t94 -86 t135 -32.5t135.5 32.5t94 86t54 120t17.5 135.5q0 68 -17.5 135.5t-54 120t-94 85t-135.5 32.5t-135 -32.5t-94 -85t-54.5 -120t-17.5 -135.5z" />
<glyph unicode="&#xf6;" horiz-adv-x="1214" d="M74 530q0 121 35.5 223.5t104.5 176.5t168 115.5t226 41.5t226.5 -41.5t168 -115.5t104.5 -176.5t36 -223.5q0 -123 -36 -225t-104.5 -176t-168 -116t-226.5 -42t-226 42t-168 116t-104.5 176.5t-35.5 224.5zM307 530q0 -70 17.5 -136t54.5 -119.5t94 -86t135 -32.5 t135.5 32.5t94 86t54 120t17.5 135.5q0 68 -17.5 135.5t-54 120t-94 85t-135.5 32.5t-135 -32.5t-94 -85t-54.5 -120t-17.5 -135.5zM320 1233v221h233v-221h-233zM672 1233v221h234v-221h-234z" />
<glyph unicode="&#xf7;" horiz-adv-x="1228" d="M98 414v209h1032v-209h-1032zM467 96q0 61 44 104.5t103 43.5t103.5 -44t44.5 -104q0 -29 -12.5 -54.5t-32 -47t-46 -33.5t-55.5 -12q-59 0 -104 44t-45 103zM467 940q0 61 44 104t103 43t103.5 -44t44.5 -103q0 -29 -12.5 -54.5t-32 -47t-46 -33.5t-55.5 -12 q-59 0 -104 44t-45 103z" />
<glyph unicode="&#xf8;" horiz-adv-x="1214" d="M66 0l133 147q-125 150 -125 383q0 121 35.5 223.5t104.5 176.5t168 115.5t226 41.5q109 0 196 -29.5t152 -82.5l129 141l66 -57l-133 -146q125 -154 125 -383q0 -123 -36 -225t-104.5 -176t-168 -116t-226.5 -42q-106 0 -193 30t-153 85l-131 -143zM307 530 q0 -55 11.5 -110t35.5 -103l457 500q-37 41 -87 63.5t-116 22.5q-78 0 -135 -32.5t-94 -85t-54.5 -120t-17.5 -135.5zM406 242q37 -41 87 -63.5t115 -22.5q78 0 135.5 32.5t94 86t54 120t17.5 135.5q0 55 -11 109.5t-36 101.5z" />
<glyph unicode="&#xf9;" horiz-adv-x="1175" d="M123 387v672h233v-649q0 -139 53.5 -196.5t149.5 -57.5q74 0 123 22.5t80 60t44 91t13 114.5v615h234v-1059h-230v147h-4q-43 -80 -128 -128t-173 -48q-209 0 -302 103.5t-93 312.5zM232 1499h274l186 -293h-170z" />
<glyph unicode="&#xfa;" horiz-adv-x="1175" d="M123 387v672h233v-649q0 -139 53.5 -196.5t149.5 -57.5q74 0 123 22.5t80 60t44 91t13 114.5v615h234v-1059h-230v147h-4q-43 -80 -128 -128t-173 -48q-209 0 -302 103.5t-93 312.5zM493 1206l184 293h277l-291 -293h-170z" />
<glyph unicode="&#xfb;" horiz-adv-x="1175" d="M123 387v672h233v-649q0 -139 53.5 -196.5t149.5 -57.5q74 0 123 22.5t80 60t44 91t13 114.5v615h234v-1059h-230v147h-4q-43 -80 -128 -128t-173 -48q-209 0 -302 103.5t-93 312.5zM256 1206l219 293h227l222 -293h-191l-145 185l-144 -185h-188z" />
<glyph unicode="&#xfc;" horiz-adv-x="1175" d="M123 387v672h233v-649q0 -139 53.5 -196.5t149.5 -57.5q74 0 123 22.5t80 60t44 91t13 114.5v615h234v-1059h-230v147h-4q-43 -80 -128 -128t-173 -48q-209 0 -302 103.5t-93 312.5zM293 1233v221h233v-221h-233zM645 1233v221h234v-221h-234z" />
<glyph unicode="&#xfd;" horiz-adv-x="1062" d="M6 1059h256l277 -791h4l268 791h244l-412 -1116q-29 -72 -56.5 -137.5t-67.5 -115.5t-99.5 -80t-151.5 -30q-82 0 -162 12v197q29 -4 55.5 -9t55.5 -5q41 0 67.5 10t44 29.5t30 46t22.5 61.5l27 82zM452 1206l184 293h277l-291 -293h-170z" />
<glyph unicode="&#xfe;" horiz-adv-x="1251" d="M129 -391v1853h233v-540h5q25 39 59.5 69.5t76.5 52t88 32.5t91 11q125 0 218 -44t154.5 -120.5t92.5 -179t31 -219.5q0 -106 -28 -206.5t-84 -177.5t-142 -123t-203 -46q-49 0 -100.5 9.5t-98.5 29t-88 51t-67 76.5h-5v-528h-233zM354 528q0 -80 19.5 -148.5 t58.5 -117.5t93.5 -77.5t125.5 -28.5q80 0 135.5 32.5t91 85t51 118.5t15.5 136q0 72 -18.5 139.5t-55 120t-92 84t-127.5 31.5q-147 0 -222 -102.5t-75 -272.5z" />
<glyph unicode="&#xff;" horiz-adv-x="1062" d="M6 1059h256l277 -791h4l268 791h244l-412 -1116q-29 -72 -56.5 -137.5t-67.5 -115.5t-99.5 -80t-151.5 -30q-82 0 -162 12v197q29 -4 55.5 -9t55.5 -5q41 0 67.5 10t44 29.5t30 46t22.5 61.5l27 82zM250 1233v221h233v-221h-233zM602 1233v221h234v-221h-234z" />
<glyph unicode="&#x152;" horiz-adv-x="2238" d="M84 725q0 154 46 294t134 246.5t216 169t292 62.5q111 0 202 -32.5t167 -118.5v116h999v-221h-766v-383h703v-209h-703v-428h780v-221h-1013v131q-74 -86 -174.5 -126t-210.5 -40q-164 0 -289 61.5t-210 166t-129 242.5t-44 290zM340 729q0 -102 25.5 -201.5t79 -178.5 t136.5 -127t199 -48q84 0 149.5 25.5t109.5 65.5t67.5 89t23.5 95v544q0 57 -21.5 110.5t-65.5 94.5t-109.5 65.5t-153.5 24.5q-117 0 -199.5 -49t-136 -128t-79 -179.5t-25.5 -202.5z" />
<glyph unicode="&#x153;" horiz-adv-x="1857" d="M72 532q0 113 33.5 214.5t98 177t159 119.5t215.5 44q55 0 109 -9t102.5 -29.5t89.5 -54t69 -85.5q59 94 160.5 136t210.5 42q137 0 231.5 -50t151.5 -135t81.5 -197.5t24.5 -235.5h-774q0 -66 17.5 -123t51.5 -99t85 -66.5t123 -24.5q43 0 85 11t75.5 33.5t58 56.5 t33.5 79h233q-43 -180 -171 -272.5t-310 -92.5q-59 0 -115.5 9.5t-104.5 32t-89 59.5t-70 94q-59 -113 -157.5 -154t-219.5 -41q-123 0 -214 45t-152.5 122t-91 178.5t-29.5 215.5zM305 537q0 -70 12.5 -137.5t43 -122t83 -88t131.5 -33.5q80 0 132.5 33.5t83 88t43 122 t12.5 137.5q0 63 -14.5 128.5t-46 118t-84 86t-126.5 33.5t-126 -33.5t-83.5 -86t-46 -118t-14.5 -128.5zM1034 623h541q-8 129 -74 204.5t-201 75.5q-59 0 -107 -22.5t-83 -61.5t-54.5 -90t-21.5 -106z" />
<glyph unicode="&#x178;" horiz-adv-x="1327" d="M-12 1462h297l387 -655l381 655h286l-546 -889v-573h-256v573zM381 1630v221h233v-221h-233zM733 1630v221h234v-221h-234z" />
<glyph unicode="&#x2c6;" horiz-adv-x="493" d="M-86 1206l219 293h227l222 -293h-191l-145 185l-144 -185h-188z" />
<glyph unicode="&#x2dc;" horiz-adv-x="493" d="M-115 1231q6 39 22.5 80t43 74.5t63.5 55t84 21.5q39 0 71 -7t95 -34q43 -18 70.5 -27.5t56.5 -9.5q45 0 68.5 25t34.5 66h114q-8 -49 -23.5 -92.5t-43.5 -73.5q-27 -33 -66 -51.5t-94 -18.5q-35 0 -74 11.5t-78 27.5q-47 20 -75.5 28.5t-63.5 8.5q-37 0 -58.5 -21.5 t-29.5 -62.5h-117z" />
<glyph unicode="&#x2000;" horiz-adv-x="980" />
<glyph unicode="&#x2001;" horiz-adv-x="1960" />
<glyph unicode="&#x2002;" horiz-adv-x="980" />
<glyph unicode="&#x2003;" horiz-adv-x="1960" />
<glyph unicode="&#x2004;" horiz-adv-x="653" />
<glyph unicode="&#x2005;" horiz-adv-x="490" />
<glyph unicode="&#x2006;" horiz-adv-x="326" />
<glyph unicode="&#x2007;" horiz-adv-x="326" />
<glyph unicode="&#x2008;" horiz-adv-x="245" />
<glyph unicode="&#x2009;" horiz-adv-x="392" />
<glyph unicode="&#x200a;" horiz-adv-x="108" />
<glyph unicode="&#x2010;" horiz-adv-x="796" d="M100 446v222h596v-222h-596z" />
<glyph unicode="&#x2011;" horiz-adv-x="796" d="M100 446v222h596v-222h-596z" />
<glyph unicode="&#x2012;" horiz-adv-x="796" d="M100 446v222h596v-222h-596z" />
<glyph unicode="&#x2013;" horiz-adv-x="1024" d="M0 446v222h1024v-222h-1024z" />
<glyph unicode="&#x2014;" horiz-adv-x="2048" d="M266 446v222h1516v-222h-1516z" />
<glyph unicode="&#x2018;" horiz-adv-x="569" d="M158 885v276q0 57 20.5 106.5t55 87.5t80.5 64.5t100 42.5v-119q-61 -23 -93 -69.5t-32 -112.5h125v-276h-256z" />
<glyph unicode="&#x2019;" horiz-adv-x="569" d="M158 885v119q74 10 99.5 62t25.5 120h-125v276h256v-276q0 -119 -69 -202t-187 -99z" />
<glyph unicode="&#x201a;" horiz-adv-x="569" d="M158 0v276h256v-276q0 -59 -20.5 -107.5t-55.5 -86t-81 -65.5t-99 -42v119q63 23 94 69.5t31 112.5h-125z" />
<glyph unicode="&#x201c;" horiz-adv-x="909" d="M123 885v276q0 57 20.5 106.5t55 87.5t81 64.5t99.5 42.5v-119q-61 -23 -93 -69.5t-32 -112.5h125v-276h-256zM530 885v276q0 57 20.5 106.5t55.5 87.5t81 64.5t99 42.5v-119q-61 -23 -92.5 -69.5t-31.5 -112.5h124v-276h-256z" />
<glyph unicode="&#x201d;" horiz-adv-x="909" d="M123 885v119q63 23 94 69.5t31 112.5h-125v276h256v-276q0 -59 -20.5 -107.5t-55.5 -86.5t-81 -65.5t-99 -41.5zM530 885v119q63 23 94 69.5t31 112.5h-125v276h256v-276q0 -59 -20.5 -107.5t-55 -86.5t-80.5 -65.5t-100 -41.5z" />
<glyph unicode="&#x201e;" horiz-adv-x="909" d="M123 0v276h256v-276q0 -59 -20.5 -107.5t-55.5 -86t-81 -65.5t-99 -42v119q63 23 94 69.5t31 112.5h-125zM530 0v276h256v-276q0 -59 -20.5 -107.5t-55 -86t-80.5 -65.5t-100 -42v119q63 23 94 69.5t31 112.5h-125z" />
<glyph unicode="&#x2022;" horiz-adv-x="1024" d="M147 731q0 76 29 142.5t78 115.5t115.5 78t142.5 29t142.5 -29t116.5 -78t79 -115.5t29 -142.5t-29 -142.5t-79 -116.5t-116.5 -78.5t-142.5 -28.5t-142.5 28.5t-115.5 78.5t-78 116.5t-29 142.5z" />
<glyph unicode="&#x2026;" horiz-adv-x="2048" d="M199 0v276h284v-276h-284zM881 0v276h284v-276h-284zM1563 0v276h284v-276h-284z" />
<glyph unicode="&#x202f;" horiz-adv-x="392" />
<glyph unicode="&#x2039;" horiz-adv-x="530" d="M102 442v230l318 252v-211l-195 -156l195 -156v-211z" />
<glyph unicode="&#x203a;" horiz-adv-x="530" d="M111 190v211l194 156l-194 156v211l317 -252v-230z" />
<glyph unicode="&#x205f;" horiz-adv-x="490" />
<glyph unicode="&#x20ac;" d="M45 532l55 130h93q-2 14 -3.5 30.5t-1.5 34.5q0 14 1 32.5t4 41.5h-148l53 131h109q51 236 186 373q158 158 404 157q178 0 364 -127l-94 -186q-131 131 -287 131q-137 0 -229 -109q-78 -96 -105 -239h541l-53 -131h-502q-2 -10 -2 -29v-47q0 -53 2 -63h473l-51 -130 h-412q25 -166 105 -260q92 -117 250 -116q102 0 170 32q61 31 139 103v-228q-139 -90 -309 -90q-274 0 -428 168q-133 145 -166 391h-158z" />
<glyph unicode="&#x2122;" horiz-adv-x="2027" d="M121 1329v133h680v-133h-258v-711h-164v711h-258zM973 618v844h237l232 -598l229 598h236v-844h-154v660h-4l-252 -660h-115l-252 660h-4v-660h-153z" />
<glyph unicode="&#xe000;" horiz-adv-x="1054" d="M0 0v1055h1055v-1055h-1055z" />
</font>
</defs>
</svg>
