<?xml version="1.0" standalone="no"?>
<!DOCTYPE svg PUBLIC "-//W3C//DTD SVG 1.1//EN" "http://www.w3.org/Graphics/SVG/1.1/DTD/svg11.dtd" >
<svg>
<metadata>
Created by FontForge 20090914 at Wed Jul 23 16:04:40 2014
 By www-data
Thank you for travelling with Fontourist (.com) RWE
</metadata>
<defs>
<font id="Journal" horiz-adv-x="500" >
  <font-face 
    font-family="Journal"
    font-weight="400"
    font-stretch="normal"
    units-per-em="1000"
    panose-1="0 0 4 0 0 0 0 0 0 0"
    ascent="800"
    descent="-200"
    x-height="232"
    cap-height="530.001"
    bbox="-1004 -378.002 1962.29 954"
    underline-thickness="20"
    underline-position="-123"
    unicode-range="U+0020-U+FB02"
  />
<missing-glyph 
d="M63 0v800h375v-800h-375zM125 63h250v675h-250v-675z" />
    <glyph glyph-name=".notdef" 
d="M63 0v800h375v-800h-375zM125 63h250v675h-250v-675z" />
    <glyph glyph-name="space" unicode=" " horiz-adv-x="233" 
 />
    <glyph glyph-name="exclam" unicode="!" horiz-adv-x="200" 
d="M180 432c-2.66699 -2 -4.66797 -7.16797 -6.00098 -15.501s-3.66602 -14.166 -6.99902 -17.499c-2.66699 -12.667 -7.33398 -29.334 -14.001 -50.001c-0.666992 -1.33301 -2.66699 -12.333 -6 -33c-2.66699 -13.333 -7 -24 -13 -32c-0.666992 -10 -4 -22.667 -10 -38
c-7.33301 -18.667 -11.666 -31.334 -12.999 -38.001c-3.33301 -5.33301 -7.66602 -14.666 -12.999 -27.999l-3 -2c-2.66699 -2.66699 -5.33398 -4 -8.00098 -4c-1.33301 0 -3 0.333008 -5 1c-4 7.33301 -3.33301 19 2 35c0.666992 2 0.666992 6.66699 0 14h3
c8 28 17.667 71 29 129c6.66699 16.667 10 33.334 10 50.001c2 2.66699 4.66699 9.66699 8 21c10.667 37.333 19 77 25 119c1.33301 1.33301 4 11 8 29c2.66699 6 4 12.333 4 19c0 8 -2.33301 16.667 -7 26c14 4.66699 24 7 30 7c11.333 0 18.333 -5.66699 21 -17
c-2 -19.333 -7.83301 -48.333 -17.5 -87s-15.5 -68 -17.5 -88zM58.999 -14.001c-6.66699 -13.333 -14.666 -19.334 -23.999 -18.001c-16.667 5.33301 -25 13.666 -25 24.999c0 10.667 3.66699 19.334 11 26.001s16.333 9.33398 27 8.00098l6 -6l4 -3
c9.33301 -6.66699 10.666 -14.667 3.99902 -24c-0.666992 -1.33301 -1.66699 -4 -3 -8z" />
    <glyph glyph-name="quotedbl" unicode="&#x22;" horiz-adv-x="117" 
d="M125 503c0 -12.667 -2 -23.001 -6 -31.001l-18 -4c1.33301 14.667 2 20.667 2 18c0.666992 2.66699 0 5 -2 7c0.666992 10.667 -0.5 26 -3.5 46s-4.5 34.333 -4.5 43v17c0 6.66699 4 11 12 13c8 0 13.667 -3 17 -9c-2 -16 -3 -29.667 -3 -41
c0 -13.333 1.33301 -23.666 4 -30.999c0 -3.33301 0.333008 -8 1 -14s1 -10.667 1 -14zM79 461.999l-18 1.99805c2 8 2 14.667 0 20c-2.66699 6.66699 -3.66699 12 -3 16c-0.666992 7.33301 -3.33398 17.666 -8.00098 30.999c0 2.66699 -2 16.334 -6 41.001
c-2 4.66699 -3 8.66699 -3 12c0 2.66699 0.833008 4.66699 2.5 6s2.83398 2.33301 3.50098 3l2 1c3.33301 2.66699 8.33301 3.33398 15 2.00098c4 -7.33301 7.33301 -16.666 10 -27.999c3.33301 -18.667 5.33301 -28.667 6 -30c0.666992 -14.667 2 -29 4 -43
c0 -6.66699 -1.66699 -17.667 -5 -33z" />
    <glyph glyph-name="numbersign" unicode="#" horiz-adv-x="480" 
d="M279 305c18 2.66699 41.002 2.66602 69.002 -0.000976562c39.333 -4 62.666 -6 69.999 -6c14 -2 22.333 -4 25 -6c6.66699 -3.33301 10 -10.666 10 -21.999c-14.667 -2.66699 -45.667 -4.66699 -93 -6c-36.667 -1.33301 -64 -4 -82 -8c-2.66699 -6.66699 -4 -14 -4 -22
c0 -8.66699 2.66699 -22.667 8 -42s7.66602 -34.333 6.99902 -45c-4 -6 -8.33301 -9 -13 -9c-5.33301 0 -12.333 4.33301 -21 13c-6 4.66699 -10.333 13.5 -13 26.5s-5.16699 21.333 -7.5 25s-3.5 8.83398 -3.5 15.501c0 2.66699 0.333008 6.5 1 11.5s1 8.83301 1 11.5
c0 5.33301 -1.66699 9 -5 11c-4.66699 -3.33301 -16.667 -5.66602 -36 -6.99902c-14.667 -0.666992 -23 -6 -25 -16c0.666992 -2 -1 -15.333 -5 -40c-0.666992 -2.66699 -1 -5.33398 -1 -8.00098c0 -8 3.66699 -14.333 11 -19c2 -10.667 -3.66699 -22.667 -17 -36
c-3.33301 -0.666992 -6.66602 -1 -9.99902 -1c-16.667 0 -26.334 8.66699 -29.001 26l12 85l-54 -11c-12.667 -3.33301 -22.334 -5 -29.001 -5c-10 0 -19.667 3.33301 -29 10c-1.33301 4 -2 7.66699 -2 11c0 10.667 7 19.667 21 27
c23.333 2.66699 57.333 8.33398 102 17.001c5.33301 13.333 8 20.666 8 21.999s-0.333008 2.66602 -1 3.99902l-45 -9c-4.66699 -2 -10 -3 -16 -3c-10 0 -21 3.66699 -33 11c-2 2.66699 -3 6 -3 10c0 4.66699 2 10.334 6 17.001l4 8c6.66699 -1.33301 13 -2 19 -2
c8.66699 0 21.667 2.33301 39 7s30.333 7 39 7c4 6 6.66699 17.167 8 33.5s3 27.166 5 32.499c-2.66699 4.66699 -4 9.66699 -4 15c0 8 2.66699 17.333 8 28c4 5.33301 9 8 15 8c2.66699 0 10.667 -3 24 -9c6 -7.33301 9 -17 9 -29c0 2 -2.33301 -13.667 -7 -47
c-2 -4 -5 -10.333 -9 -19c-0.666992 -1.33301 -1 -2.33301 -1 -3c0 -1.33301 0.666992 -2 2 -2c24 4.66699 39.667 11.667 47 21c12 53.333 35 84.666 69 93.999l12 -18c-8.66699 -16 -18.667 -40.667 -30 -74c6 0.666992 14.333 1 25 1
c8.66699 4.66699 24.667 7.33398 48 8.00098c26 0.666992 43 2 51 4c4.66699 0 11.834 0.333008 21.501 1s16.834 1 21.501 1c19.333 0 34.333 -5.33301 45 -16v-18c-28.667 0.666992 -56.667 -1 -84 -5l-77 -11c-33.333 -5.33301 -56.333 -12.333 -69 -21
c-0.666992 -6.66699 -2.33398 -16 -5.00098 -28zM200.002 321.999c-7.33301 -6 -11 -14.999 -11 -26.999l41 4c2.66699 1.33301 4 4.66602 4 9.99902v16c-16 0 -27.333 -1 -34 -3z" />
    <glyph glyph-name="dollar" unicode="$" horiz-adv-x="418" 
d="M434 572c-14 -9.33301 -20.999 -18.334 -20.999 -27.001c-13.333 -10.667 -23.333 -25.334 -30 -44.001c-20 -36 -49 -93 -87 -171l-7 -5c34.667 -40.667 50 -80.334 46 -119.001c-5.33301 -1.33301 -8 -4 -8 -8v-6l-5 -3c-16.667 -41.333 -54 -71.333 -112 -90
c-17.333 -35.333 -28.333 -90.333 -33 -165h-3c0.666992 -21.333 -5.33301 -41.333 -18 -60c0 23.333 1.66699 90.333 5 201c-4 0.666992 -8.33301 1 -13 1c-10.667 0 -23.667 -1.66699 -39 -5c-6.66699 -6 -13 -17.833 -19 -35.5s-12 -29.5 -18 -35.5
c-0.666992 -5.33301 -3.16699 -14.5 -7.5 -27.5s-6.5 -23.167 -6.5 -30.5c0 -5.33301 1 -10.666 3 -15.999c-5.33301 -12 -9.33301 -20 -12 -24c-6 -6.66699 -14 -11 -24 -13c-9.33301 9.33301 -14 20 -14 32c0 9.33301 2.33301 20.333 7 33l12 32
c8 20.667 18 51.334 30 92.001c-6.66699 2.66699 -16 12.667 -28 30v22l21 -10c9.33301 -4 16.666 -5 21.999 -3c15.333 20.667 28.666 46.334 39.999 77.001c6 18 15.667 45.333 29 82c8.66699 21.333 16.334 43.333 23.001 66c-26.667 15.333 -41.334 24 -44.001 26
c-15.333 11.333 -24.333 25 -27 41c2 35.333 19.667 67.333 53 96l93 65c27.333 6 46.666 24.333 57.999 55c6 18 15.333 44.333 28 79c-0.666992 3.33301 -1 6.33301 -1 9c0 6.66699 6.66699 18.667 20 36c11.333 -0.666992 21.333 -5 30 -13
c2.66699 -6.66699 4 -13.667 4 -21c0 -10.667 -4.33301 -25.667 -13 -45s-13.667 -33 -15 -41c3.33301 -2.66699 7 -4 11 -4c2.66699 0 7.33398 1 14.001 3s11.667 3 15 3c12.667 18.667 22.334 28 29.001 28c3.33301 0 7 -0.666992 11 -2c7.33301 -4 11 -8.66699 11 -14
c0 -2.66699 -1.16699 -6.5 -3.5 -11.5s-3.5 -8.83301 -3.5 -11.5c0 -4.66699 3 -9 9 -13c2 -4.66699 3 -9 3 -13c0 -8 -5 -15.333 -15 -22zM340.001 563.999l-8.99805 -2.99707h-2c-14.667 -20.667 -37.667 -64.334 -69 -131.001c0 -4.66699 -2.66699 -11 -8 -19l-5 -5
c-4.66699 -6.66699 -7 -13.334 -7 -20.001c0 -2.66699 0.333008 -5.33398 1 -8.00098l-3 -3c-2 -2 -4.33301 -2.66699 -7 -2v-15c13.333 -8.66699 21.666 -12.667 24.999 -12c2.66699 10.667 8.66699 25.167 18 43.5s15.333 31.833 18 40.5
c0.666992 2.66699 3.16699 7 7.5 13s5.83301 11.333 4.5 16l47 102c-2.66699 3.33301 -6.33398 4.33301 -11.001 3zM203.003 490.002c-7.33301 -6.66699 -20 -16.333 -38 -29c-16 -20.667 -24 -36 -24 -46c0 -4.66699 1 -9.66699 3 -15
c20.667 -14.667 34.334 -21.667 41.001 -21c23.333 46 42 91 56 135c-12.667 -5.33301 -25.334 -13.333 -38.001 -24zM278.003 273.003c-11.333 -20.667 -20 -37.998 -26 -51.998c-9.33301 -20.667 -16 -39.334 -20 -56.001c2 -0.666992 9.33301 0.666016 22 3.99902
c30 24.667 44.333 48 43 70c-2 6 -4.33301 12.5 -7 19.5s-6.66699 11.833 -12 14.5zM215.003 315.005c-8 -12 -19.334 -37.667 -34.001 -77c-19.333 -32 -35.333 -68.333 -48 -109c4 -3.33301 7.66699 -5 11 -5c2.66699 0 7.5 1.66699 14.5 5s12.833 4.66602 17.5 3.99902
c4.66699 15.333 17.334 50.333 38.001 105c0 8.66699 3.66699 20.834 11 36.501s11.333 27.167 12 34.5c-6.66699 4.66699 -14 6.66699 -22 6z" />
    <glyph glyph-name="percent" unicode="%" horiz-adv-x="598" 
d="M555 480c-32.667 -26.667 -76.8301 -72.165 -132.497 -136.498s-99.834 -109.833 -132.501 -136.5c-8 -14.667 -25.833 -33.667 -53.5 -57s-45.167 -43 -52.5 -59c-16.667 -12.667 -38.334 -43.334 -65.001 -92.001l11 -11c-9.33301 -2 -15.333 -4 -18 -6l-5 -2
c-4 -2 -7.66699 -3 -11 -3c-6.66699 0 -12.334 4 -17.001 12c-1.33301 4.66699 -2 9 -2 13c0 8.66699 3 18.667 9 30l15 28c16.667 29.333 44.667 64.666 84 105.999c48.667 50 79.667 83 93 99l54 51c20.667 20 36.334 39.333 47.001 58v15c4 -1.33301 7.33301 -2 10 -2
c6.66699 0 14.334 5.33301 23.001 16c4 8 6 11 6 9c14 18 21 29.333 21 34c0 2.66699 -0.833008 5.16699 -2.5 7.5s-2.5 5.83301 -2.5 10.5v4c-0.666992 3.33301 -3 12.333 -7 27c8 -9.33301 17.667 -20 29 -32c1.33301 -0.666992 2.66602 -1 3.99902 -1
c2 0 3.33301 0.333008 4 1c5.33301 10.667 14.333 22.667 27 36c16.667 17.333 26.667 28.333 30 33c4.66699 2 9 3 13 3c7.33301 0 17.666 -6.66699 30.999 -20c2.66699 -4 4 -8 4 -12c0 -8 -4.66699 -15.667 -14 -23zM274.004 411.002
c-2 -6.66699 -7.66602 -21.002 -16.999 -43.002c-4 -13.333 -17.333 -32.333 -40 -57c-44.667 -36.667 -88 -55 -130 -55c-12.667 0 -25 1.66699 -37 5c-25.333 12.667 -41.666 36 -48.999 70c-1.33301 20.667 6 41 22 61c22 27.333 34.333 45 37 53l32 15
c9.33301 3.33301 14.666 12 15.999 26c6 -1.33301 10.333 -0.666016 13 2.00098l2 3c3.33301 4.66699 7.33301 7.33398 12 8.00098c46.667 16 77.667 23 93 21c1.33301 -2 7.66602 -7.33301 18.999 -16c8 -6 11.667 -13.333 11 -22c4.66699 -2.66699 8.66699 -9 12 -19l2 -6
c6 -12.667 6.66699 -28 2 -46zM217.005 469c-6 -14.667 -14.0039 -22.668 -24.0039 -24.001c-10 2.66699 -22.667 -0.333008 -38 -9l-34 -22c-0.666992 -6.66699 -6 -13 -16 -19c-6.66699 -2.66699 -10 -9 -10 -19c-9.33301 0.666992 -15.666 -1 -18.999 -5
s-7.66602 -10 -12.999 -18c-1.33301 -2 -4.66602 -5.66699 -9.99902 -11c-6 -14.667 -2.33301 -27 11 -37c5.33301 -4 13.333 -5.33301 24 -4c5.33301 1.33301 13.333 3 24 5c20 4 35 10.667 45 20c46 42.667 69 81.667 69 117c0 6.66699 -0.666992 13.334 -2 20.001
c-3.33301 7.33301 -5.66602 9.33301 -6.99902 6zM551.001 103.999c0 -10.667 -2.33105 -23.666 -6.99805 -38.999c-7.33301 -14 -21 -27 -41 -39l-50 -30c-2.66699 1.33301 -5.33398 2 -8.00098 2c-3.33301 0 -8 -2 -14 -6c-8.66699 -6 -13.334 -9 -14.001 -9
c-13.333 -3.33301 -25.666 -5 -36.999 -5c-22.667 0 -40 7.33301 -52 22c-0.666992 4 -3 11.333 -7 22s-6 19 -6 25c0 8 2.33301 15.667 7 23c22.667 37.333 38 60.666 46 69.999c20 24 42.667 38.667 68 44c6.66699 7.33301 14 8 22 2c4 -3.33301 11.333 -6.33301 22 -9
c3.33301 -1.33301 5.66602 -2.33301 6.99902 -3c4 -2 8.33301 -1 13 3c16.667 -6.66699 26.667 -11 30 -13c10.667 -6 17.334 -13.667 20.001 -23c1.33301 -20.667 1.66602 -33 0.999023 -37zM490.003 135c-8 4 -16.334 1.33203 -25.001 -8.00098
c-17.333 1.33301 -32.333 -3.66699 -45 -15c-4.66699 -4.66699 -14.667 -17 -30 -37l-18 -24c-2.66699 -4.66699 -4 -8.66699 -4 -12c0 -2.66699 0.666992 -5 2 -7c4 -1.33301 8.33301 -2 13 -2c8.66699 0 20 2.83301 34 8.5s24 8.83398 30 9.50098
c2.66699 6 8.33398 10.333 17.001 13l13 4c24 23.333 34.667 43.333 32 60c-2 0.666992 -8.33301 4 -19 10z" />
    <glyph glyph-name="ampersand" unicode="&#x26;" horiz-adv-x="548" 
d="M495 245c-6 -8.66699 -10.667 -17.001 -14 -25.001c-6 -2 -19.667 -16.333 -41 -43l-40 -51c-3.33301 -6 -10.333 -17.333 -21 -34c-2 -4 -6 -9 -12 -15c7.33301 -4 14.666 -8.66699 21.999 -14c22 -16 41.333 -23.333 58 -22c4 -2.66699 7.33301 -9.33398 10 -20.001
c0.666992 -2 2.33398 -6 5.00098 -12c-4 -2.66699 -14.667 -4.66699 -32 -6c-38.667 16 -71.334 31.667 -98.001 47c-46 -46 -94.333 -89 -145 -129c-32 -25.333 -66.333 -38 -103 -38c-22.667 0 -45.667 5.66699 -69 17c-14 6.66699 -17.667 26.667 -11 60
c8 12 17.333 31 28 57l71 108c24 37.333 44.333 75.333 61 114c17.333 22 26 49.333 26 82c0 12.667 -1.66699 31.834 -5 57.501s-5 44.834 -5 57.501c0 14 4.33301 41 13 81c4 18 11.333 34 22 48c10 0 19 -3.66699 27 -11c6 -8 12.333 -15.667 19 -23
c5.33301 -14 8 -28.667 8 -44c0 -17.333 -5.5 -42.833 -16.5 -76.5s-16.5 -59.167 -16.5 -76.5c0 -20.667 5.66699 -40.334 17 -59.001c6.66699 -10.667 17 -37.667 31 -81c11.333 -33.333 27.333 -58.333 48 -75c14.667 7.33301 30.334 20 47.001 38
c8 8.66699 16 15.334 24 20.001c24 26.667 42 45.667 54 57c22 20.667 49.333 42 82 64zM235 191.999c-1.33301 12 -2.33301 18.999 -3 20.999c-2.66699 6.66699 -8.33398 9.66699 -17.001 9c-11.333 -6 -22 -22.667 -32 -50c-7.33301 -3.33301 -13.5 -11.666 -18.5 -24.999
s-12.167 -21.333 -21.5 -24c-6 -21.333 -22 -52 -48 -92c-22 -34 -33.333 -68 -34 -102c10 -4 19.333 -6 28 -6c8 0 17.667 2.66699 29 8c17.333 8 28 12.667 32 14c60 49.333 110.333 96.333 151 141c-14 16 -26.167 34.5 -36.5 55.5s-20.166 37.833 -29.499 50.5z" />
    <glyph glyph-name="quotesingle" unicode="'" horiz-adv-x="46" 
d="M49 505c-0.666992 -6 -2.00098 -12.001 -4.00098 -18.001l-19 1c1.33301 4 2 7.66699 2 11s-0.666992 6.33301 -2 9c-2 7.33301 -3 12.666 -3 15.999c-0.666992 7.33301 -3 17.666 -7 30.999l-7 41c-2 10.667 -1.66699 17.334 1 20.001l1 1
c0.666992 0 1.33398 0.333008 2.00098 1l1 1c2.66699 1.33301 5.66699 2 9 2c2 0 4.33301 -0.333008 7 -1c4 -7.33301 7 -16.666 9 -27.999c2 -8.66699 3.83301 -18.167 5.5 -28.5s3.16699 -25.166 4.5 -44.499v-14z" />
    <glyph glyph-name="parenleft" unicode="(" horiz-adv-x="298" 
d="M220 457c-9.33301 -12.667 -21.668 -33.6621 -37.001 -62.9951l-10 -16l-24 -35c-60.667 -86 -91 -179.667 -91 -281c11.333 -32.667 18.333 -51.334 21 -56.001c10 -18 25 -29.667 45 -35h20c6.66699 -0.666992 14.667 -5.66699 24 -15c-8 -2 -20.667 -5 -38 -9
c-12 -2.66699 -23 -2.33398 -33 0.999023c-18 4 -41 26 -69 66c-12.667 24 -19 52.333 -19 85c0 29.333 5 59.333 15 90c3.33301 4 6.83301 12.833 10.5 26.5s7.83398 23.5 12.501 29.5c5.33301 15.333 14.666 37 27.999 65c2 7.33301 6.66699 13 14 17l5 4
c4.66699 2 7 5 7 9c0 2 -0.333008 4.33301 -1 7c30 55.333 59 103.666 87 144.999c4.66699 -0.666992 7.33398 0.666016 8.00098 3.99902l2 9c0.666992 3.33301 2.33398 6.66602 5.00098 9.99902c20 26.667 34.333 44.667 43 54c17.333 18.667 35.666 32 54.999 40
c8.66699 -2 14 -8.66699 16 -20l4 -8c-18 -13.333 -35.833 -32.833 -53.5 -58.5z" />
    <glyph glyph-name="parenright" unicode=")" horiz-adv-x="236" 
d="M85 89c-0.666992 -7.33301 -4.83594 -14.332 -12.5029 -20.999s-11.5 -13 -11.5 -19c-27.333 -28.667 -66 -74.667 -116 -138c-7.33301 -2 -14.166 -7 -20.499 -15l-18 -22.5c-5.66699 -7 -14.834 -12.167 -27.501 -15.5c-2 11.333 0 19.333 6 24c10 8 15.333 13 16 15
c8.66699 13.333 23.667 32 45 56c0.666992 6.66699 5 13.167 13 19.5s11.667 12.166 11 17.499c3.33301 6 10.666 12.667 21.999 20c7.33301 6 11 12.333 11 19c8.66699 5.33301 17.834 15.833 27.501 31.5s16.834 25.834 21.501 30.501c40 53.333 71.667 116 95 188
c8 24.667 12 54 12 88v45c-0.666992 20 -1 35 -1 45c-1.33301 6 -5.33301 18.333 -12 37c-5.33301 15.333 -8 27.666 -8 36.999c-4.66699 6 -10.667 21.667 -18 47c-7.33301 2.66699 -11.666 7.33398 -12.999 14.001l-4 19c-1.33301 3.33301 -4 6 -8 8
c0 17.333 5.66699 27.333 17 30c20.667 -8 34.334 -27.333 41.001 -58c7.33301 -5.33301 12.833 -15.833 16.5 -31.5s8.16699 -25.834 13.5 -30.501c9.33301 -52 14 -98 14 -138c0 -115.333 -37.333 -216 -112 -302z" />
    <glyph glyph-name="asterisk" unicode="*" horiz-adv-x="349" 
d="M175 251c15.333 -8.66699 36.3359 -23.665 63.0029 -44.998c18.667 -14.667 30 -25 34 -31c8.66699 -10.667 13 -25.334 13 -44.001c-16.667 14 -38.667 29.333 -66 46c-38.667 23.333 -61.667 37.666 -69 42.999c-13.333 -31.333 -20 -58.666 -20 -81.999
c0 -4 -0.333008 -9.33301 -1 -16c-0.666992 -4.66699 1 -10.334 5 -17.001c-5.33301 -2.66699 -9.66602 -4 -12.999 -4c-6.66699 0 -11.334 4.33301 -14.001 13l-1 3c-0.666992 0.666992 -1.33398 1.66699 -2.00098 3v38c0 12.667 1.66699 23.667 5 33
c2.66699 12.667 5 30 7 52c-18 -6.66699 -37.333 -10 -58 -10c-15.333 0 -31.333 2 -48 6c-1.33301 4.66699 -2 9 -2 13c0 10 4 16.333 12 19c17.333 -2 42.333 -1 75 3c-2 4 -7.33301 14 -16 30c-6.66699 12.667 -10 23 -10 31c0 10 4.66699 19.667 14 29
c14.667 2 25 -2.66699 31 -14c-0.666992 -4 -1 -7.66699 -1 -11c0 -12 7.66699 -28.333 23 -49c5.33301 12.667 14.333 31 27 55v3l-5 10c10 0 17.333 4.66699 22 14c8 14.667 15.333 22 22 22c6 0 13 -4 21 -12c0 -4 -1.5 -9.33301 -4.5 -16s-4.5 -11.667 -4.5 -15
c-3.33301 -2.66699 -7.33301 -8.5 -12 -17.5s-9.33398 -15.167 -14.001 -18.5c-4 -6 -8.66699 -15 -14 -27c1.33301 -0.666992 4.66602 -1 9.99902 -1l5 11l11 -8c28 4.66699 51.667 7 71 7c7.33301 0 14 -0.333008 20 -1c4 -2 6.66699 -4.33301 8 -7c0 -2 -0.5 -5 -1.5 -9
s-1.5 -7 -1.5 -9c-7.33301 -4 -13.333 -6 -18 -6c-2.66699 0 -5 0.666992 -7 2c-10.667 1.33301 -24.667 0 -42 -4c-20 -4.66699 -34 -7 -42 -7c-3.33301 -3.33301 -7.33301 -5 -12 -5z" />
    <glyph glyph-name="plus" unicode="+" horiz-adv-x="347" 
d="M220 296c34 4.66699 54.332 6.99902 60.999 6.99902c14.667 0 28 -2.33301 40 -7l-1 -25c-7.33301 0.666992 -14.666 1.66699 -21.999 3c-8 0.666992 -14.667 -1.33301 -20 -6c-20 0 -39.667 -2 -59 -6c-0.666992 -15.333 -2.33398 -38 -5.00098 -68
c1.33301 -12.667 0.833008 -20.5 -1.5 -23.5s-8.83301 -8.5 -19.5 -16.5c-2.66699 -0.666992 -5.66699 -1 -9 -1s-6.66602 0.333008 -9.99902 1c-4 10.667 -6 22.334 -6 35.001c0 7.33301 0.833008 17.833 2.5 31.5s2.5 24.167 2.5 31.5c-26 -6 -48 -9.33301 -66 -10
c-3.33301 0 -8.83301 -0.666992 -16.5 -2s-13.5 -2 -17.5 -2c-11.333 0 -17.333 6 -18 18l6 16c2 5.33301 6.33301 9.33301 13 12c17.333 -1.33301 33.666 -2 48.999 -2c20.667 0 38.667 1.33301 54 4c0.666992 6 3.33398 24.667 8.00098 56
c1.33301 9.33301 8.33301 28 21 56l26 -1c-7.33301 -13.333 -10.333 -25 -9 -35c1.33301 -5.33301 2 -10 2 -14c0 -5.33301 -1 -11 -3 -17c0.666992 -3.33301 0 -15 -2 -35z" />
    <glyph glyph-name="comma" unicode="," horiz-adv-x="180" 
d="M112 45c0.666992 -5.33301 -1.33398 -16 -6.00098 -32c-14 -49.333 -42.333 -89 -85 -119c-2 2 -5.66699 3.83301 -11 5.5s-8 4.5 -8 8.5c0 2 0.5 4.66699 1.5 8s3.5 6.33301 7.5 9l2 2c4 2.66699 6.33301 5.66699 7 9c20.667 31.333 33.334 51.333 38.001 60
c12 23.333 19 46 21 68c4 4 9 6 15 6c10.667 0 18 -5.33301 22 -16c-2.66699 -3.33301 -4 -6.33301 -4 -9z" />
    <glyph glyph-name="hyphen" unicode="-" horiz-adv-x="331" 
d="M210 244c10 0 24.001 -1.99902 42.001 -5.99902s31 -6 39 -6c9.33301 -4 16.666 -14 21.999 -30c-5.33301 -16.667 -19.333 -24.334 -42 -23.001c-6 5.33301 -13.333 8.66602 -22 9.99902h-25c-5.33301 2 -14.833 2.33301 -28.5 1s-24.5 0.333984 -32.5 5.00098
c-8 -0.666992 -16.333 -1 -25 -1c-30.667 0 -57 3.33301 -79 10c-27.333 8 -41 20 -41 36c6 6 19.333 9 40 9c7.33301 0 29 -1 65 -3c33.333 -2 62.333 -2.66699 87 -2z" />
    <glyph glyph-name="hyphen" unicode="&#x2010;" horiz-adv-x="331" 
d="M210 244c10 0 24.001 -1.99902 42.001 -5.99902s31 -6 39 -6c9.33301 -4 16.666 -14 21.999 -30c-5.33301 -16.667 -19.333 -24.334 -42 -23.001c-6 5.33301 -13.333 8.66602 -22 9.99902h-25c-5.33301 2 -14.833 2.33301 -28.5 1s-24.5 0.333984 -32.5 5.00098
c-8 -0.666992 -16.333 -1 -25 -1c-30.667 0 -57 3.33301 -79 10c-27.333 8 -41 20 -41 36c6 6 19.333 9 40 9c7.33301 0 29 -1 65 -3c33.333 -2 62.333 -2.66699 87 -2z" />
    <glyph glyph-name="period" unicode="." horiz-adv-x="140" 
d="M67 20c-2 -19.333 -12.333 -29.999 -31 -31.999c-10 6 -15 11 -15 15c-1.33301 7.33301 -2 13.666 -2 18.999c0 18.667 7.66699 28 23 28c5.33301 -1.33301 10.5 -2.83301 15.5 -4.5s8.16699 -5.5 9.5 -11.5v-14z" />
    <glyph glyph-name="slash" unicode="/" horiz-adv-x="204" 
d="M199 425c-18 -13.333 -26.335 -31.332 -25.002 -53.999c-7.33301 -4 -14 -14 -20 -30c-8 -18.667 -13.667 -30 -17 -34c0 -9.33301 -3 -16 -9 -20c-1.33301 -12.667 -7.66602 -31.167 -18.999 -55.5s-17.333 -43.5 -18 -57.5c-6 -8.66699 -11.667 -21.667 -17 -39
c-7.33301 -22 -12 -35.333 -14 -40c-8.66699 -35.333 -18.667 -87 -30 -155c0.666992 -7.33301 -2.33301 -15 -9 -23c-1.33301 -2.66699 -4.33301 -8 -9 -16c-12.667 27.333 -16.667 60.333 -12 99c3.33301 28 9.33301 58.667 18 92c4 14 23.667 73.333 59 178
c4.66699 13.333 38.334 97.666 101.001 252.999c4 6 9.33301 9 16 9c6 0 12.333 -2.33301 19 -7c4.66699 -4 7 -13 7 -27c0 -7.33301 -0.666992 -16 -2 -26c-3.33301 -4.66699 -7.5 -11.167 -12.5 -19.5s-7.16699 -17.5 -6.5 -27.5z" />
    <glyph glyph-name="zero" unicode="0" horiz-adv-x="414" 
d="M373 276c-12.667 -46.667 -24.335 -78.666 -35.002 -95.999c-16.667 -45.333 -43.667 -89.5 -81 -132.5s-78.666 -74.5 -123.999 -94.5c-15.333 -4 -29.666 -6 -42.999 -6c-57.333 0 -86 36 -86 108c0 14 1.66699 34.667 5 62c3.33301 3.33301 6 9.33301 8 18
c0.666992 6.66699 1.66699 13.334 3 20.001c5.33301 12 20 51 44 117c10.667 15.333 17.667 26 21 32c7.33301 12.667 12.333 24.334 15 35.001c8 15.333 21.167 36.166 39.5 62.499s31.166 46.166 38.499 59.499c6.66699 5.33301 15 13.666 25 24.999
c-3.33301 0.666992 -12.333 -4.33301 -27 -15c-2 -4 -6.16699 -7.5 -12.5 -10.5s-10.166 -5.5 -11.499 -7.5c-4 -2.66699 -9.66699 -9.66699 -17 -21c-5.33301 -8.66699 -12.333 -13 -21 -13c-4.66699 0 -10 1 -16 3c16.667 38 32.334 62 47.001 72
c36.667 36 87.667 55.667 153 59c12.667 -1.33301 22 -16.333 28 -45c17.333 -27.333 27.333 -44 30 -50c9.33301 -19.333 13.666 -38.333 12.999 -57c3.33301 -2.66699 4.83301 -7.5 4.5 -14.5s0.166992 -11.167 1.5 -12.5zM288.999 495.001
c-4.66699 0 -10.833 -2.66602 -18.5 -7.99902s-13.167 -8.33301 -16.5 -9c-48.667 -48 -95 -113 -139 -195c-48 -90.667 -72 -165.334 -72 -224.001c0 -15.333 1.33301 -30 4 -44c7.33301 -4.66699 11 -10.667 11 -18c8 -6 15.333 -10 22 -12c41.333 2 79.333 19.667 114 53
c9.33301 6.66699 28 27.667 56 63c57.333 74 86.666 160.667 87.999 260c0.666992 58 -15.666 102.667 -48.999 134z" />
    <glyph glyph-name="one" unicode="1" horiz-adv-x="181" 
d="M139 479l-43 -234.001c-16 -92 -24.667 -170.333 -26 -235c6.66699 -5.33301 10 -15.666 10 -30.999c-3.33301 -6.66699 -11.666 -10 -24.999 -10c-16 8.66699 -24 21.667 -24 39c0 5.33301 0.833008 13.333 2.5 24s2.5 18.667 2.5 24c0 6 -0.666992 11.333 -2 16l18 127
l35 200c14.667 80.667 24.334 147.667 29.001 201c1.33301 15.333 6 29 14 41c3.33301 -1.33301 8.66602 -3 15.999 -5c3.33301 -0.666992 8.66602 -4 15.999 -10c-2 -16 -9.66699 -65 -23 -147z" />
    <glyph glyph-name="two" unicode="2" horiz-adv-x="421" 
d="M389 569l1.00195 -3.00781c1.33301 -6.66699 0.333008 -12 -3 -16c-2.66699 -10 -9.66699 -25.333 -21 -46c0 -9.33301 -5 -19.166 -15 -29.499s-15.333 -18.166 -16 -23.499c-13.333 -17.333 -31.333 -45 -54 -83c-9.33301 -1.33301 -16.833 -7.66602 -22.5 -18.999
s-11.167 -18.333 -16.5 -21c-1.33301 -3.33301 -12.666 -19.333 -33.999 -48l-95 -134c-3.33301 -7.33301 -16.666 -27.666 -39.999 -60.999c-17.333 -24.667 -26.666 -47 -27.999 -67c16.667 -9.33301 37.667 -14 63 -14c23.333 0 49.333 3.66699 78 11
c16.667 4 51.334 15.333 104.001 34c42 15.333 77.333 25 106 29c-6.66699 -4 -22.334 -14 -47.001 -30c-10.667 -6.66699 -21 -10.334 -31 -11.001c-18.667 -11.333 -35.334 -21 -50.001 -29c-20.667 -10.667 -38.334 -17.667 -53.001 -21
c-34.667 -12 -75.667 -18 -123 -18c-17.333 0 -35.333 0.666992 -54 2c-31.333 9.33301 -47 22.666 -47 39.999c0 19.333 12 49 36 89c6.66699 4 12.667 13 18 27c22.667 26.667 50.667 64.334 84 113.001l81 116l46 61c5.33301 2.66699 10.666 8.83398 15.999 18.501
s9.66602 15.834 12.999 18.501c4.66699 6.66699 10.667 16.334 18 29.001c2.66699 6 10 19.333 22 40c10 16.667 15 30.334 15 41.001c0 4.66699 -0.666992 9.33398 -2 14.001c-6 4.66699 -12.667 7 -20 7s-16.666 -2.66699 -27.999 -8
c-15.333 -7.33301 -24.666 -11.333 -27.999 -12c-4.66699 -5.33301 -16 -12.666 -34 -21.999c-14.667 -8 -24.667 -17.667 -30 -29c-20.667 0 -36.334 6 -47.001 18c1.33301 10.667 8 19 20 25l6 3c6.66699 3.33301 10.667 7.33301 12 12c9.33301 6 25.333 13.833 48 23.5
s39 18.5 49 26.5c32 0.666992 52.667 -0.333008 62 -3c19.333 -5.33301 34.666 -19.333 45.999 -42c-4.66699 -2.66699 -6.33398 -5.33398 -5.00098 -8.00098z" />
    <glyph glyph-name="three" unicode="3" horiz-adv-x="445" 
d="M395 491c-5.33301 -8 -14.666 -23.0039 -27.999 -45.0039c-10 -8.66699 -24.667 -23 -44 -43l-59 -38c-22.667 -15.333 -40.667 -30 -54 -44c25.333 -2 61.333 -6.66699 108 -14c39.333 -11.333 64.333 -34.666 75 -69.999c0 -62 -46.333 -117 -139 -165
c-8.66699 -0.666992 -20 -4.66699 -34 -12s-24.333 -11.666 -31 -12.999c-13.333 -4 -28 -6 -44 -6c-27.333 0 -56 5.33301 -86 16c-28 15.333 -46 36.666 -54 63.999c3.33301 1.33301 6.66602 2 9.99902 2c7.33301 0 15 -3.66699 23 -11c10 -10 16.667 -15.667 20 -17
c20 -8.66699 42.667 -13 68 -13c40 0 81.333 11 124 33c38 26 60.667 42.667 68 50c23.333 22.667 35.333 47.334 36 74.001c-5.33301 10 -15 17.333 -29 22c-2 0.666992 -14.333 2.66699 -37 6c-14.667 6 -27 8 -37 6l-6 -8c-10 6 -23 9 -39 9
c-18.667 -0.666992 -30.667 0 -36 2c-8 2.66699 -20 12.334 -36 29.001c10 16 28 33.667 54 53l65 45c14 9.33301 34.667 24.666 62 45.999c22.667 18.667 39 38.667 49 60c1.33301 4.66699 2 8.33398 2 11.001c0 6.66699 -3 10.334 -9 11.001c-14 6 -30.667 9 -50 9
c-22.667 0 -48 -4 -76 -12c-22 -0.666992 -43 -6.66699 -63 -18c-4.66699 1.33301 -13.667 -0.666992 -27 -6c-14 -5.33301 -24.333 -2 -31 10c-0.666992 3.33301 -1 6.33301 -1 9c0 4.66699 5 11.667 15 21c9.33301 2 38 10.333 86 25c34 10.667 63 16 87 16
c44.667 0 79.667 -12.667 105 -38c6 -20 3.66699 -38.667 -7 -56z" />
    <glyph glyph-name="four" unicode="4" horiz-adv-x="339" 
d="M319 395c-1.33301 -4 -4.33301 -11.333 -9 -22c6 -2.66699 9 -6.66699 9 -12c0 -3.33301 -1.16699 -8.16602 -3.5 -14.499s-3.5 -10.833 -3.5 -13.5c-28.667 -31.333 -52.667 -87 -72 -167c-4 -1.33301 -6.66699 -7 -8 -17c0 -4 -1.33301 -7.33301 -4 -10
c-7.33301 -12 -13 -29.667 -17 -53c-2.66699 -16.667 -6.33398 -35.667 -11.001 -57c0 -14 -1.33301 -34 -4 -60c-8 1.33301 -20 8.66602 -36 21.999c0 6 6.66699 44.333 20 115l29 100c6.66699 16.667 10 28 10 34c-10.667 -8 -28 -17.333 -52 -28
c-14.667 -11.333 -32 -17 -52 -17c-15.333 0 -30 3.66699 -44 11c-36.667 26 -55 70 -55 132c0 32 4 63.667 12 95c4 15.333 14.667 40 32 74c5.33301 17.333 17 32.333 35 45c15.333 -1.33301 24.333 -6.66602 27 -15.999c2 -12.667 -7 -29 -27 -49
c-2.66699 -3.33301 -4 -9 -4 -17c-7.33301 -5.33301 -13 -15 -17 -29c-4.66699 -16 -8.66699 -26.333 -12 -31l-9 -67c-4 -2.66699 -4.66699 -6.33398 -2 -11.001c3.33301 -6 5 -11 5 -15l6 -41c4.66699 -24 22.334 -36 53.001 -36c19.333 0 41.666 7.66699 66.999 23l60 41
c12.667 30 30 77 52 141c5.33301 14.667 14 41 26 79c2.66699 2 5.66699 7 9 15c2.66699 5.33301 7.33398 9 14.001 11c7.33301 0 14.333 -8.66699 21 -26z" />
    <glyph glyph-name="five" unicode="5" horiz-adv-x="377" 
d="M68 74l-5.00195 -0.00390625c2 7.33301 4.33301 14 7 20c4.66699 9.33301 10.334 9.33301 17.001 0c4 -13.333 15 -22.666 33 -27.999c26 2.66699 50.5 13.167 73.5 31.5s39.167 39.833 48.5 64.5c1.33301 7.33301 2 14.333 2 21c0 19.333 -6.33301 35 -19 47
c-24.667 23.333 -57.334 35 -98.001 35c-25.333 0 -49.333 -4.66699 -72 -14c-5.33301 0.666992 -13 0.333984 -23 -0.999023s-17 -2 -21 -2c-17.333 0 -30.333 7.66699 -39 23c11.333 23.333 29.333 54.333 54 93c28 42.667 46.667 73 56 91
c-1.33301 3.33301 -2 7.33301 -2 12c0 19.333 8 29 24 29c2.66699 0 5.33398 -0.333008 8.00098 -1c24 5.33301 57 10.333 99 15c48 4.66699 81.333 8.66699 100 12c16 -0.666992 32 -1.66699 48 -3c19.333 -2 34.333 -6.33301 45 -13v-23c-4 0 -23.333 -1.33301 -58 -4
c-19.333 -1.33301 -37 -1.66602 -53 -0.999023l-5 -4c-24.667 -1.33301 -52.667 -5.66602 -84 -12.999c-43.333 -10 -70.333 -15.667 -81 -17c-6 -12 -16.667 -29.333 -32 -52s-26 -40 -32 -52l-28 -41c2 -0.666992 4.66699 -1 8 -1c6 0 15.833 1.66699 29.5 5
s23.834 5.5 30.501 6.5s16.334 1.5 29.001 1.5c34 0 64.333 -8 91 -24c6 -10 15.333 -16.667 28 -20c10.667 -21.333 20.667 -37 30 -47c4 -12.667 6 -25 6 -37c0 -18.667 -7.33301 -40 -22 -64c-4 -6 -17.667 -24.667 -41 -56c-3.33301 0 -6.33301 -1.33301 -9 -4l-3 -3
c-6.66699 -6.66699 -12.334 -11 -17.001 -13c-12 -12.667 -28.667 -19 -50 -19c-8 0 -23 1.66699 -45 5c-2 4 -8 11.667 -18 23c-6 6.66699 -9.33301 14 -10 22z" />
    <glyph glyph-name="six" unicode="6" horiz-adv-x="405" 
d="M308 36c-54.667 -38.667 -106.333 -58.001 -155 -58.001c-24.667 0 -46.667 5.33301 -66 16c-10.667 6 -19.667 8 -27 6c0 8 -4.66699 20.333 -14 37c-8.66699 14.667 -11.667 27.667 -9 39c-3.33301 12.667 -5 25.334 -5 38.001c0 16.667 2.66699 36.334 8 59.001l14 59
c8 22.667 23 55 45 97c-1.33301 8.66699 1.66699 14 9 16c38.667 62.667 64.334 102.334 77.001 119.001c30 40.667 63.667 73.667 101 99c2.66699 0.666992 5 1 7 1c16 0 24 -6.33301 24 -19v-10l-65 -59c-23.333 -22 -40.333 -45.333 -51 -70
c-4 -0.666992 -8.66699 -6.66699 -14 -18c-2 -4 -4.33301 -7.33301 -7 -10c-9.33301 -8 -19 -21.667 -29 -41c-10 -22 -18 -36.333 -24 -43c0 -3.33301 -2 -8.66602 -6 -15.999s-5.66699 -13.333 -5 -18c-6.66699 -6 -13 -16.833 -19 -32.5s-11 -26.834 -15 -33.501
c-0.666992 -12 -2.66699 -30.333 -6 -55c1.33301 0.666992 3.66602 2.66699 6.99902 6l3 3c2 2.66699 17 15 45 37c14.667 11.333 29 18.666 43 21.999c27.333 14 57 21 89 21c31.333 0 57 -7 77 -21c26 -24 39 -48.333 39 -73c0 -8.66699 -1.66699 -17.334 -5 -26.001
c-6.66699 -28 -28.667 -52 -66 -72zM300.001 183.999c-12 3.33301 -24.334 5.00098 -37.001 5.00098c-32 0 -64.333 -9 -97 -27l-47 -36c-18 -14.667 -30 -29.334 -36 -44.001c-2.66699 -16.667 3 -32.667 17 -48c17.333 -9.33301 39 -14 65 -14c18.667 0 34 2.33301 46 7
c16.667 6 44.334 21 83.001 45c33.333 27.333 48.666 50 45.999 68c-9.33301 21.333 -22.666 36 -39.999 44z" />
    <glyph glyph-name="seven" unicode="7" horiz-adv-x="276" 
d="M274 392c0 -4 -1.66602 -9.99902 -4.99902 -17.999c-30.667 -57.333 -56.334 -112.666 -77.001 -165.999c-5.33301 -8 -11.333 -19.667 -18 -35l-16.5 -36.5c-3 -6.33301 -12.833 -29.166 -29.5 -68.499c-11.333 -28 -16.333 -51.667 -15 -71
c6.66699 -4.66699 11.334 -10.667 14.001 -18c-3.33301 -8.66699 -9.33301 -13 -18 -13c-3.33301 0 -8.33301 0.666992 -15 2c-15.333 8.66699 -23 23.667 -23 45c0 4 1.66699 18 5 42c7.33301 20.667 21.166 51.5 41.499 92.5s34.166 71.167 41.499 90.5
c13.333 32 24 55.667 32 71c15.333 27.333 27.666 54.666 36.999 81.999c12 24 18 41.333 18 52h2c2.66699 6.66699 6 17.667 10 33c3.33301 12 1.33301 21.333 -6 28c-18 16.667 -46.333 25 -85 25h-12c-7.33301 -0.666992 -14 -1 -20 -1h-31
c-10 1.33301 -23.667 -0.333984 -41 -5.00098c-19.333 -4.66699 -33 -7 -41 -7c-15.333 0 -28.333 5.66699 -39 17c-2.66699 20 6.33301 30 27 30h13c6.66699 -0.666992 11.334 -1 14.001 -1c8 0 14 1.33301 18 4l109 12c2.66699 -3.33301 7.83398 -4.83301 15.501 -4.5
s12.5 -0.5 14.5 -2.5c30 -6.66699 49.667 -12.334 59 -17.001c28.667 -14 43 -39 43 -75c0 -26.667 -7.33301 -55.667 -22 -87z" />
    <glyph glyph-name="eight" unicode="8" horiz-adv-x="337" 
d="M311 333l-77.998 -58.998c-1.33301 -6.66699 1 -15.667 7 -27c9.33301 -13.333 21.333 -34 36 -62c2 -9.33301 3 -19.333 3 -30c0 -44 -11 -80 -33 -108c-20 -24.667 -51.667 -46.334 -95 -65.001c-53.333 0 -89.666 12 -108.999 36c-24 30 -36 53 -36 69
c0 7.33301 1.33301 14.666 4 21.999c2.66699 16 11 33.333 25 52l39 45c11.333 8 31.333 24.667 60 50c6.66699 5.33301 17.334 15 32.001 29c-44.667 48 -65.334 90.667 -62.001 128c16.667 56.667 53 104 109 142c35.333 24 63.666 36 84.999 36
c14.667 0 28 -4.66699 40 -14c8.66699 -6.66699 10 -18 4 -34c-10.667 -14 -24.334 -19.333 -41.001 -16c-2.66699 7.33301 -6.33398 11 -11.001 11c-2 -0.666992 -7 -2.66699 -15 -6c-2.66699 -2 -6.33398 -3 -11.001 -3c-4.66699 -3.33301 -17.667 -11.333 -39 -24
c-15.333 -8.66699 -26.666 -19 -33.999 -31h-4c-6.66699 -8 -16 -20.667 -28 -38c-10 -14.667 -15 -29 -15 -43c0 -8 2 -16 6 -24c14.667 -29.333 30.334 -50 47.001 -62c58 38 97.333 73 118 105c-3.33301 10 -13 21.667 -29 35c-6.66699 6 -12 11.333 -16 16
c8 11.333 18 17 30 17c3.33301 0 6.66602 -0.666992 9.99902 -2c23.333 -4.66699 38 -23 44 -55c2 -32 -12.333 -62 -43 -90zM210.002 223.002c-2.66699 5.33301 -7.66797 12.335 -15.001 21.002c-61.333 -47.333 -108 -93 -140 -137c0 -6 -2.66699 -15 -8 -27v-8
c10.667 -18.667 28.334 -34.334 53.001 -47.001c36 -2.66699 60.333 2.66602 73 15.999c19.333 10 35 23.667 47 41c13.333 26 20 50.333 20 73c0 16 -3.66699 29.667 -11 41c-6.66699 5.33301 -13 14.333 -19 27z" />
    <glyph glyph-name="nine" unicode="9" horiz-adv-x="378" 
d="M344 434c-18.667 -35.333 -45.001 -64.668 -79.001 -88.001c-4.66699 -14 -18.667 -25.333 -42 -34c-26 -28.667 -62 -43 -108 -43c-8 0 -15.667 0.333008 -23 1c-40 14 -67.333 39.333 -82 76c-6 61.333 23.333 126.333 88 195c18 14.667 34.333 26 49 34l68 36
c34.667 6 57.667 9 69 9c22 0 40.667 -5.33301 56 -16l18 -18c6.66699 -7.33301 10.334 -14.333 11.001 -21c12.667 -17.333 19 -40.666 19 -69.999c0 -6.66699 -0.333008 -16.167 -1 -28.5s-1 -21.833 -1 -28.5c-2.66699 -6 -5.66699 -21.667 -9 -47
c-2.66699 -6 -10.334 -26 -23.001 -60c-12 -24 -29.333 -60.667 -52 -110c-3.33301 -7.33301 -9.33301 -17 -18 -29c-15.333 -27.333 -46.666 -77.666 -93.999 -150.999c-7.33301 -10.667 -18.666 -31 -33.999 -61c-4 -8 -9.33301 -12 -16 -12c-4.66699 0 -9.66699 2 -15 6
c-2 5.33301 -3 10.333 -3 15c0 9.33301 5 21.166 15 35.499s16 24.5 18 30.5c9.33301 9.33301 20.666 25.166 33.999 47.499s23 37.833 29 46.5c-0.666992 4.66699 0.333008 8.33398 3 11.001l9 6c0.666992 2 0.666992 3.66699 0 5c28.667 50.667 56 101.667 82 153
c14 28 24.667 64.667 32 110zM325.999 561.998c-10.667 8.66699 -24.667 13.002 -42 13.002c-2 0 -20.667 -2.33301 -56 -7c-4 -1.33301 -15 -6.33301 -33 -15c-12.667 -6 -22.667 -13 -30 -21c-6.66699 -2 -15 -7.33301 -25 -16s-17.333 -14 -22 -16
c-22 -26.667 -37.667 -48 -47 -64c-15.333 -26 -23 -50.333 -23 -73c0 -8 1 -16.333 3 -25c6.66699 -4 16 -10.667 28 -20c9.33301 -2 18.666 -3 27.999 -3c24.667 0 50.334 8.33301 77.001 25l67 50c2.66699 1.33301 3.33398 4.33301 2.00098 9c8.66699 4 16 10 22 18
c7.33301 11.333 12.666 18.333 15.999 21c6 5.33301 10.333 13.666 13 24.999c0.666992 8.66699 1.66699 18 3 28c0.666992 5.33301 3 13.666 7 24.999c18 0 29.333 -1.66699 34 -5c0 5.33301 -2.16699 11.333 -6.5 18s-9.5 17.667 -15.5 33z" />
    <glyph glyph-name="colon" unicode=":" horiz-adv-x="121" 
d="M64 358c0 -14 -3.66602 -22.6689 -10.999 -26.002c-3.33301 -1.33301 -8 -1.33301 -14 0l-3 2c-2.66699 0.666992 -10.334 -2.66602 -23.001 -9.99902c6 12.667 9 20.334 9 23.001c-1.33301 6 -3 11.667 -5 17c-0.666992 6 2.33301 11 9 15
c4.66699 1.33301 14.334 -0.666992 29.001 -6c1.33301 -0.666992 5.66602 -0.333984 12.999 0.999023c-2.66699 -7.33301 -4 -12.666 -4 -15.999zM18.001 121.998c-6.66699 5.33301 -10.001 20.334 -10.001 45.001c13.333 -2.66699 20.333 -4 21 -4
c8.66699 -2.66699 14.334 -6.33398 17.001 -11.001c8 -10 8.66699 -19.667 2 -29c-7.33301 -10.667 -17.333 -11 -30 -1z" />
    <glyph glyph-name="semicolon" unicode=";" horiz-adv-x="221" 
d="M127 279c-12.667 2.66699 -21.332 9.66699 -25.999 21c-0.666992 3.33301 0.666016 14 3.99902 32c14 2 27 -4.66699 39 -20c1.33301 -3.33301 2 -6.33301 2 -9c0 -10.667 -6.33301 -18.667 -19 -24zM127.002 70l-39.998 -36.0029
c-4.66699 -7.33301 -14.334 -17.666 -29.001 -30.999c-0.666992 -4 -2.33398 -6.66699 -5.00098 -8l-8 -4v-9c-5.33301 1.33301 -10.333 0.333008 -15 -3c-8 -5.33301 -16 -3.66602 -24 5.00098c33.333 35.333 62.333 75.333 87 120c5.33301 4.66699 11 7 17 7
c14.667 0 22 -6.66699 22 -20c0 -2 -0.833008 -5.16699 -2.5 -9.5s-2.5 -8.16602 -2.5 -11.499z" />
    <glyph glyph-name="less" unicode="&#x3c;" horiz-adv-x="424" 
d="M372 65c-5.33301 2 -17.6631 7.33398 -36.9961 16.001c-21.333 9.33301 -70 34 -146 74l-20 5c-0.666992 6 -5 10 -13 12l-8 4c-13.333 12.667 -39.333 31.334 -78 56.001c-34.667 22 -59.334 43 -74.001 63c0 22 7 37.667 21 47c9.33301 6 25.5 11.333 48.5 16
s39.167 10 48.5 16c44.667 8 101.667 14.333 171 19c14 0.666992 27 1 39 1c43.333 0 66 -6.66699 68 -20c1.33301 -6.66699 2 -12.334 2 -17.001c0 -6 -1.33301 -9.33301 -4 -10c-8.66699 4.66699 -17.334 7 -26.001 7c-6 0 -14.833 -1.66699 -26.5 -5s-20.5 -5 -26.5 -5
c-4.66699 0 -9.33398 0.666992 -14.001 2c-4.66699 -2 -12.834 -2.83301 -24.501 -2.5s-19.5 -0.833984 -23.5 -3.50098c-76.667 2 -141.667 -10.667 -195 -38c50 -48 121 -94 213 -138c21.333 -9.33301 59.333 -27 114 -53c17.333 -8.66699 26 -16.667 26 -24
c0 -8.66699 -11.667 -16 -35 -22z" />
    <glyph glyph-name="equal" unicode="=" horiz-adv-x="361" 
d="M266 277c-6 0.666992 -11.668 -1 -17.001 -5c-20 2 -48 0 -84 -6c-38.667 -6.66699 -66.667 -9.66699 -84 -9c6.66699 -1.33301 -3.33301 -2 -30 -2c-12 0 -20 6 -24 18c0.666992 2.66699 1.33398 7.66699 2.00098 15c0 5.33301 4 10 12 14c34 -4.66699 60.333 -7 79 -7
c22.667 0 42.667 2.66699 60 8c18 1.33301 36 3 54 5c20 0 37.667 -3.33301 53 -10l6 -26c-5.33301 1.33301 -14.333 3 -27 5zM302.999 196c-6 1.33301 -11.334 1.99805 -16.001 1.99805s-12.167 -1.66699 -22.5 -5s-19.166 -4.66602 -26.499 -3.99902
c-14 -1.33301 -34.333 -6 -61 -14c-17.333 -3.33301 -43.333 -7.66602 -78 -12.999c-8.66699 -2.66699 -16 -4 -22 -4c-4.66699 0 -7.66699 0.833008 -9 2.5l-5 6.5l-2 2c-2.66699 4 -4 8.33301 -4 13c0 3.33301 0.666992 6.66602 2 9.99902c14 8 31.667 14 53 18
c30 5.33301 48 9 54 11c20.667 2 48 4.33301 82 7c10.667 0.666992 30 -1.66602 58 -6.99902z" />
    <glyph glyph-name="greater" unicode="&#x3e;" 
d="M101 65c-20.667 6 -31.0049 13.333 -31.0049 22c0 7.33301 7.66699 15.333 23 24l101 54c82 44.667 145.333 91.334 190 140.001c-48 27.333 -106 40 -174 38c-3.33301 2.66699 -10.166 3.83398 -20.499 3.50098s-17.5 0.5 -21.5 2.5c-4 -1.33301 -8.33301 -2 -13 -2
c-5.33301 0 -13.166 1.66699 -23.499 5s-18.333 5 -24 5s-14.167 3.66699 -25.5 11c-1.33301 -2.66699 -2.66602 -4.33398 -3.99902 -5.00098c-1.33301 0 -3.33301 3.66699 -6 11l10 -6c0.666992 2 1 5.33301 1 10c2 14 22.667 20.667 62 20c10 0 21.333 -0.333008 34 -1
c61.333 -4.66699 111.666 -11.334 150.999 -20.001c8 -5.33301 22.333 -10.5 43 -15.5s35 -10.5 43 -16.5c12.667 -10 19 -26 19 -48c-12 -18.667 -34.167 -39.667 -66.5 -63s-55.166 -42.333 -68.499 -57c-3.33301 -2 -5.66602 -3.33301 -6.99902 -4
c-7.33301 -2 -11.333 -6 -12 -12l-17 -5c-57.333 -34.667 -100.666 -59.667 -129.999 -75c-2.66699 -2 -13.667 -7.33301 -33 -16z" />
    <glyph glyph-name="question" unicode="?" horiz-adv-x="365" 
d="M334 439l-24.0039 -23.998c-10 -8.66699 -20 -14.334 -30 -17.001c-8.66699 -9.33301 -31 -25.666 -67 -48.999c-5.33301 -4.66699 -13.666 -11 -24.999 -19c-3.33301 -2 -24.666 -16.333 -63.999 -43c-26 -18 -44.333 -36 -55 -54
c1.33301 -3.33301 3.66602 -8 6.99902 -14c4.66699 -2.66699 26.667 -6.66699 66 -12c7.33301 -1.33301 19.666 -7 36.999 -17l-65 -5c-38 0 -63.667 10.333 -77 31c-4.66699 7.33301 -5.66699 18.666 -3 33.999c12 19.333 34 39 66 59c36 22 59.667 39.333 71 52
c4.66699 3.33301 22.334 15 53.001 35c8.66699 4 21.667 12 39 24l37.5 26c13.667 9.33301 25.5 21 35.5 35c7.33301 7.33301 15 17.666 23 30.999c-7.33301 30 -34.666 48.333 -81.999 55c-37.333 5.33301 -59.666 8 -66.999 8c-11.333 0 -26 -1 -44 -3l-45 -5
c-6.66699 -4 -14.667 -6.66699 -24 -8c-17.333 -6.66699 -28.333 -11 -33 -13c-12.667 -6 -22.667 -12.667 -30 -20c-5.33301 0.666992 -15 6.66699 -29 18c0.666992 11.333 6.33398 19.333 17.001 24l29 8c11.333 10 24.333 15 39 15c42.667 11.333 83 17 121 17
c78.667 0 137 -25 175 -75l6 -17c-4 -26 -23.333 -51.667 -58 -77zM67.9961 -6.99805l-0.999023 -0.00195312c-7.33301 0 -11 3.66699 -11 11c0 4.66699 2 8.66699 6 12c1.33301 0.666992 3.66602 3.33398 6.99902 8.00098c17.333 -0.666992 35.666 1 54.999 5
c2.66699 -3.33301 4 -6.66602 4 -9.99902c0 -4.66699 -3 -10 -9 -16l-3 -8c-3.33301 1.33301 -5.66602 2 -6.99902 2c-2 0 -5.33301 -1.66699 -10 -5c-8 -7.33301 -14.333 -11 -19 -11s-8.66699 4 -12 12z" />
    <glyph glyph-name="at" unicode="@" horiz-adv-x="531" 
d="M680 -103c-12.667 -4 -21.6689 -8.33691 -27.002 -13.0039c-79.333 -28.667 -163.333 -43 -252 -43c-104 0 -195 19.667 -273 59l-81 82c-26.667 33.333 -39.334 68.666 -38.001 105.999c2.66699 74 27 149.333 73 226c30 50 86 104.667 168 164
c11.333 3.33301 23 5 35 5c14.667 0 33.667 -3 57 -9c28 -6.66699 46.667 -10.667 56 -12c80 -37.333 127 -86.666 141 -147.999c2.66699 -60 -12 -120.667 -44 -182c-30.667 -58.667 -71 -106.334 -121 -143.001c-18.667 -14 -36.334 -21 -53.001 -21
c-13.333 0 -24.333 5.33301 -33 16c-14 16.667 -24.333 25 -31 25c-4.66699 0 -9.33398 -1 -14.001 -3c-12.667 -12.667 -28 -19 -46 -19c-12.667 0 -24.667 3.33301 -36 10c-11.333 16.667 -17 37 -17 61c0 14.667 2.33301 28 7 40c28.667 49.333 75.667 101 141 155
c9.33301 13.333 25 21 47 23h55c18 -9.33301 27 -24 27 -44s-16.333 -57.333 -49 -112c-11.333 -19.333 -25.666 -35.666 -42.999 -48.999c0.666992 -4.66699 -0.166016 -11 -2.49902 -19s-3.5 -13.667 -3.5 -17c0 -5.33301 2 -10.333 6 -15c26.667 8 55.334 32 86.001 72
c55.333 72.667 83 134 83 184c0 26 -6.33301 50.667 -19 74c-44.667 51.333 -107 80.666 -187 87.999c-36.667 -11.333 -71 -34.666 -103 -69.999c-4.66699 -4.66699 -30 -38 -76 -100c-24 -32 -41.667 -84 -53 -156c-3.33301 -57.333 17.334 -102 62.001 -134
c4.66699 -15.333 11 -24.333 19 -27c4 -1.33301 10.667 -6.66602 20 -15.999s18 -13.666 26 -12.999c25.333 -17.333 57 -29 95 -35c22.667 -3.33301 56.334 -8 101.001 -14l171 12c10 4.66699 28 9.33398 54 14.001c23.333 4.66699 41 10.334 53 17.001h46
c-11.333 -10.667 -20.333 -17 -27 -19zM361.998 225.996c-6 0.666992 -15.668 -0.666016 -29.001 -3.99902c-34.667 -25.333 -67 -52.666 -97 -81.999c-26.667 -26 -40 -55 -40 -87c0 -6.66699 0.666992 -13.334 2 -20.001c11.333 -0.666992 23.666 2.66602 36.999 9.99902
l33 20c-0.666992 3.33301 -1 6.33301 -1 9c0 4.66699 2.83301 11 8.5 19s8.5 15 8.5 21c12.667 12.667 20.667 19 24 19c4.66699 9.33301 14.334 21.333 29.001 36s24.334 26.667 29.001 36c3.33301 5.33301 5 10 5 14c0 4.66699 -3 7.66699 -9 9z" />
    <glyph glyph-name="A" unicode="A" horiz-adv-x="416" 
d="M393 276l-12.9971 0.000976562c-2 -0.666992 -4 -3 -6 -7c-12.667 2 -23 -1 -31 -9c-0.666992 -6.66699 -1 -13.667 -1 -21c0 -20.667 3.66699 -44 11 -70c6 -20.667 12.333 -43.667 19 -69c5.33301 -8.66699 18.666 -36 39.999 -82c2.66699 -2.66699 4 -5.66699 4 -9
c0 -6.66699 -7.33301 -14.334 -22 -23.001c-14.667 6 -29.334 26 -44.001 60c-5.33301 13.333 -15.666 37.333 -30.999 72c-4.66699 22 -9.66699 38 -15 48c-1.33301 18 -5 44.333 -11 79c-28.667 -5.33301 -70.667 -17.333 -126 -36c-10 -0.666992 -26 -3.66699 -48 -9
c-8.66699 -2 -14.334 -8 -17.001 -18c-26.667 -28.667 -49 -70.334 -67 -125.001c7.33301 8 20.333 20 39 36l-23 -62c-4.66699 -0.666992 -8 -4.66699 -10 -12c-4.66699 -18.667 -19.667 -28 -45 -28c-5.33301 0 -10 0.666992 -14 2c0.666992 2 1 3.66699 1 5
c0 3.33301 -1 5.66602 -3 6.99902c0.666992 35.333 14.334 74 41.001 116c17.333 28 32.666 55.333 45.999 82l-23 8c-8 4.66699 -11.667 11.334 -11 20.001c-0.666992 6.66699 7 15.667 23 27c4 1.33301 8 2 12 2c3.33301 0 8.83301 -1.66699 16.5 -5
s13.5 -4.33301 17.5 -3c9.33301 14.667 24 36.334 44 65.001c12 12.667 25 29.334 39 50.001l35 52c3.33301 8 10 19.167 20 33.5s16.667 25.5 20 33.5c3.33301 2 6.33301 6.66699 9 14s4.66699 12 6 14c-1.33301 2 -0.333008 8.33301 3 19
c0.666992 1.33301 1.33398 4.66602 2.00098 9.99902c6 1.33301 10 5.33301 12 12c3.33301 11.333 9.33301 17.333 18 18c13.333 1.33301 25 -1 35 -7c1.33301 -10.667 2 -24 2 -40c0 -15.333 -0.666992 -33.666 -2 -54.999c1.33301 -8.66699 2 -17.334 2 -26.001
c0 -22 -4 -42.333 -12 -61c0 -9.33301 -1 -23 -3 -41c1.33301 -8 3.66602 -20 6.99902 -36c5.33301 0 13.333 1 24 3s18.667 3 24 3c13.333 0 24 -4.33301 32 -13c-8.66699 -12 -17.334 -20 -26.001 -24zM288.003 378.001c1.33301 32.667 1.66699 56.002 1 70.002
c-30.667 -40.667 -74 -103.667 -130 -189c22.667 7.33301 56.667 15.666 102 24.999c8.66699 0.666992 18.334 4.66699 29.001 12c-2.66699 19.333 -3.33398 46.666 -2.00098 81.999z" />
    <glyph glyph-name="B" unicode="B" horiz-adv-x="410" 
d="M161 288c76 1.33301 132.997 -18.998 170.997 -60.998c10.667 -16 16 -33 16 -51c0 -10.667 -2.33301 -21.667 -7 -33c-4 -2 -7.66699 -6.5 -11 -13.5s-7 -11.5 -11 -13.5l-6 -15c-6 -8 -16.167 -18.167 -30.5 -30.5s-24.5 -21.833 -30.5 -28.5
c-58 -40.667 -114.333 -61 -169 -61c-22 0 -42.667 3.66699 -62 11c-8 6.66699 -16.167 14 -24.5 22s-12.166 17 -11.499 27c6.66699 4 13 4.66699 19 2c4.66699 -2 7.66699 -2.66699 9 -2c10 45.333 26.333 108.333 49 189c1.33301 4 -1.5 10 -8.5 18
s-10.5 13.333 -10.5 16c0 4.66699 3.33301 8.66699 10 12c15.333 8 25.333 24 30 48c6.66699 32 12 52 16 60c0 1.33301 0.333008 2.66602 1 3.99902v3l2 4c0.666992 3.33301 -0.333008 7 -3 11c7.33301 8.66699 12.833 21.167 16.5 37.5s6.83398 29.5 9.50098 39.5
c8 10 17.333 15 28 15c2.66699 0 5.33398 -0.666992 8.00098 -2c8 -6 12 -13 12 -21c0 -6 -3 -15 -9 -27s-9 -21 -9 -27c-4.66699 -18 -12 -44.667 -22 -80c0.666992 -3.33301 -0.333008 -7.5 -3 -12.5s-4 -8.16699 -4 -9.5c80 40 140.667 82.667 182 128
c8 6 13 15.333 15 28c-17.333 14.667 -43.666 22.667 -78.999 24c-18.667 0 -47 0.333008 -85 1c-6 0.666992 -15.667 0 -29 -2c-15.333 -2.66699 -25.666 -4 -30.999 -4c-17.333 0 -30 6.33301 -38 19c-1.33301 1.33301 -3.33301 4.33301 -6 9c-0.666992 2 -1 3.66699 -1 5
c0 4 1.83301 7.66699 5.5 11s11.167 5.66602 22.5 6.99902l11 3c1.33301 -5.33301 4.66602 -8 9.99902 -8c2 0 5.66699 1 11 3s9.66602 3 12.999 3c6.66699 0 13.334 -2 20.001 -6h103c41.333 -2.66699 73.666 -11.334 96.999 -26.001c15.333 -18 23.333 -34.333 24 -49
c-6.66699 -10 -18 -25 -34 -45c-0.666992 -4.66699 -5.66699 -10 -15 -16c-8 -9.33301 -41.667 -36.666 -101 -81.999c-8 -2 -17.667 -6.66699 -29 -14l-27 -17c-0.666992 0 -1.66699 -0.666992 -3 -2zM114.997 235.002l4.00098 -5.00098c-4 -3.33301 -7 -5.33301 -9 -6
s-3.33301 -1 -4 -1c-2.66699 -16.667 -9.33398 -41 -20.001 -73c-1.33301 -11.333 -5.83301 -30.333 -13.5 -57s-11.5 -46 -11.5 -58c0 -6 0.666992 -11.333 2 -16c8.66699 -2 20 -1.66699 34 1c21.333 4 32.666 6 33.999 6c50 24.667 84.667 44.334 104 59.001
c38 28 61 59.333 69 94c-18 40 -47.333 58 -88 54c-7.33301 5.33301 -17.666 8 -30.999 8h-37c-7.33301 -0.666992 -18.333 -2.66699 -33 -6z" />
    <glyph glyph-name="C" unicode="C" horiz-adv-x="425" 
d="M392 59c-4 -6 -8.00098 -9.33398 -12.001 -10.001c-13.333 -9.33301 -26.333 -19 -39 -29c-17.333 -10.667 -32 -16.334 -44 -17.001c-19.333 -13.333 -42.666 -21.666 -69.999 -24.999c-16 -1.33301 -40.333 -3.66602 -73 -6.99902c-34.667 4 -64.667 15.333 -90 34
c-27.333 20.667 -44.333 47 -51 79c-3.33301 9.33301 -5 19.666 -5 30.999c0 18.667 4.33301 42.334 13 71.001l20 66l56 102c22 40 45.333 71.667 70 95c58 78.667 112.667 130.334 164 155.001c9.33301 1.33301 18 2 26 2c18.667 0 33 -4.33301 43 -13v-18
c-0.666992 -6 -3.66699 -11.333 -9 -16c-2 -0.666992 -12.667 -1.33398 -32 -2.00098c-14 -0.666992 -24 -4.66699 -30 -12l-40.5 -26c-17.667 -11.333 -29.834 -23.333 -36.501 -36c-96.667 -96.667 -161 -213.667 -193 -351c-1.33301 -37.333 7 -67.333 25 -90
c18.667 -24.667 46 -37 82 -37c10 0 24.833 1.5 44.5 4.5s33.5 4.83301 41.5 5.5c19.333 5.33301 47.333 16.333 84 33c4 0.666992 11.333 4.16699 22 10.5s19.334 8.83301 26.001 7.5c2.66699 3.33301 6.66699 5 12 5h20l-1 -11c-13.333 2 -21 1.66699 -23 -1z" />
    <glyph glyph-name="D" unicode="D" horiz-adv-x="501" 
d="M376 131c-5.33301 -2 -12.4961 -8.16699 -21.4961 -18.5s-17.5 -15.833 -25.5 -16.5c-24 -21.333 -64.333 -43 -121 -65c-4 -8.66699 -11.333 -13.5 -22 -14.5s-17.667 -3.16699 -21 -6.5l-74 -18c-31.333 -7.33301 -58 -11 -80 -11c-16.667 0 -31.334 2 -44.001 6
c-4 2.66699 -5 8.33398 -3 17.001c17.333 -2.66699 41.333 0.666016 72 9.99902c1.33301 4.66699 0.666016 11 -2.00098 19c-3.33301 10.667 -5 17 -5 19c9.33301 78.667 24.333 162 45 250c6 11.333 11.333 27.333 16 48c5.33301 24.667 9.66602 41 12.999 49
c-0.666992 3.33301 3.33301 18.666 12 45.999c4.66699 15.333 -0.333008 23.333 -15 24c-20 22 -30 36.333 -30 43c0 2.66699 0.333008 5.33398 1 8.00098c4.66699 5.33301 11.667 8 21 8c6 0 13 -1 21 -3c1.33301 -0.666992 3 -1 5 -1h1l6 6c6 6 9.66699 9.33301 11 10
c4.66699 3.33301 10 5.33301 16 6c13.333 -2 24.333 -14 33 -36c-0.666992 -2 -1 -4 -1 -6c0 -2.66699 1.33301 -4.33398 4 -5.00098h9c1.33301 0 4.33301 0.666992 9 2c8 -6 23.333 -10 46 -12c84 -16.667 148 -50 192 -100c22.667 -25.333 34 -54.666 34 -87.999
c0 -25.333 -7.33301 -49.333 -22 -72c-8.66699 -17.333 -35.334 -50 -80.001 -98zM431.004 327c-0.666992 4.66699 -2.66602 11.666 -5.99902 20.999c-16.667 25.333 -56.667 51.333 -120 78l-68 14c-26.667 5.33301 -50 7.33301 -70 6
c-4.66699 -25.333 -13.667 -60.666 -27 -105.999c-14.667 -48.667 -24.334 -84 -29.001 -106c-5.33301 -10.667 -8 -19.334 -8 -26.001c0 -2.66699 0.333008 -5 1 -7c-4 -15.333 -8.33301 -41.666 -13 -78.999c-4.66699 -33.333 -10.667 -59 -18 -77
c4 -9.33301 5.66699 -16.333 5 -21h2c24 0 55 8.66699 93 26l90 42c7.33301 7.33301 18.333 15.666 33 24.999c17.333 10.667 28.666 18.334 33.999 23.001c64.667 52.667 100.667 107.667 108 165c-3.33301 4.66699 -5.66602 12 -6.99902 22z" />
    <glyph glyph-name="E" unicode="E" horiz-adv-x="395" 
d="M334 514c-32.667 -3.33301 -61.002 -9.66504 -85.002 -18.998c-14.667 0 -23.667 -2 -27 -6c-3.33301 -12.667 -11.666 -25 -24.999 -37c-8 -7.33301 -17.333 -18 -28 -32c-6.66699 -16 -17 -36 -31 -60l-20 -50c4 -1.33301 7.66699 -2 11 -2s10.5 2 21.5 6
s19.167 6.33301 24.5 7c14.667 2 25.334 5.33301 32.001 10c9.33301 2.66699 64.666 23 165.999 61l41 -4c-22 -22 -38 -33 -48 -33c-12.667 -12 -31.667 -23 -57 -33c-35.333 -14 -55.666 -22.667 -60.999 -26c-14 -3.33301 -35.333 -12 -64 -26
c-18 0 -46.667 -7.66699 -86 -23c-26 -54.667 -39 -104.667 -39 -150c0 -9.33301 0.666992 -18 2 -26c8.66699 -32 23.667 -49 45 -51c33.333 -2.66699 68.333 9.33301 105 36l102 77c0.666992 -13.333 -3.66602 -26.333 -12.999 -39
c-2.66699 -3.33301 -12.334 -13.333 -29.001 -30c-52 -62 -108 -91 -168 -87c-51.333 18.667 -81.333 45.667 -90 81c-6.66699 51.333 -4.33398 91.333 6.99902 120c6.66699 16.667 14 39.667 22 69c-13.333 6 -19.666 17.333 -18.999 34c4 4 10.667 7.5 20 10.5
s15.333 5.5 18 7.5c0.666992 10 6 24 16 42s15.333 32 16 42c5.33301 2 8.66602 6.16699 9.99902 12.5s3 10.5 5 12.5c10 17.333 26 42.333 48 75c-1.33301 1.33301 -11.666 4 -30.999 8l-11 17c-0.666992 2.66699 -1 5 -1 7c0 15.333 17.667 22.666 53 21.999
c23.333 -0.666992 37.666 -0.333984 42.999 0.999023c62 12.667 118.667 19 170 19c34 0 66.333 -2.66699 97 -8l6 -14c-19.333 -6 -68.666 -13 -147.999 -21z" />
    <glyph glyph-name="F" unicode="F" horiz-adv-x="392" 
d="M498 579l-5.99414 0.000976562c-6 -1.33301 -11.333 0 -16 4c-6 -0.666992 -19.667 -3.66699 -41 -9c-17.333 -4.66699 -31.333 -6.33398 -42 -5.00098c-11.333 -0.666992 -28 -5 -50 -13c-10.667 0.666992 -26 -1.16602 -46 -5.49902s-34.667 -6.5 -44 -6.5
c-4 -3.33301 -9.66699 -5 -17 -5h-6c-6.66699 1.33301 -12 -1 -16 -7l-67 -213c-5.33301 -6 -9.33301 -15.667 -12 -29c-4 -16 -7 -26.333 -9 -31c2 -2 7.66699 -2.33301 17 -1c11.333 2 17.666 2.66699 18.999 2c13.333 4.66699 33.333 8.33398 60 11.001s46 5.66699 58 9
c18 5.33301 35.667 8 53 8c18.667 0 36.667 -3 54 -9c-1.33301 -8.66699 -3.33301 -13.334 -6 -14.001s-8.33398 -1.66699 -17.001 -3c-3.33301 0 -6 -1.33301 -8 -4l-154 -37c-14 0.666992 -27.667 -3.33301 -41 -12c-3.33301 0.666992 -7.33301 1 -12 1
c-8 0 -18.333 -1.33301 -31 -4l-10 -12c-18.667 -68.667 -28 -114 -28 -136c0 -7.33301 0.666992 -14.333 2 -21h1c5.33301 0 8.66602 0.666992 9.99902 2c4 3.33301 8.66699 5 14 5c-0.666992 -22.667 -11 -40 -31 -52c-12 -2.66699 -22.667 1.33301 -32 12
c-7.33301 6 -9.66602 16.667 -6.99902 32c0.666992 4.66699 1 9 1 13c0 8 -1.66699 13.667 -5 17l27 127c-10 1.33301 -20.667 3.16602 -32 5.49902s-17.333 8.16602 -18 17.499c-0.666992 14.667 6.66602 23.667 21.999 27c22 0 37 2.66699 45 8
c3.33301 5.33301 5.66602 16 6.99902 32c1.33301 13.333 5.66602 24 12.999 32c18.667 56 31.667 96.333 39 121c14 46.667 23.667 86.667 29 120l-13 24c15.333 9.33301 34 13 56 11c25.333 -2 43.333 -1.66699 54 1c8 0.666992 41.667 6 101 16c40 6.66699 74 10 102 10
c10 0 19.667 -0.333008 29 -1c0.666992 -1.33301 4.66699 -5 12 -11c5.33301 -4 8 -8 8 -12c0 -5.33301 -2.66699 -10.666 -8 -15.999c-2.66699 0.666992 -5.33398 1 -8.00098 1z" />
    <glyph glyph-name="G" unicode="G" horiz-adv-x="357" 
d="M285 -30l1.99902 -2.00293c2.66699 -2 4 -4 4 -6c0 -1.33301 -0.666992 -3 -2 -5c-4.66699 -4.66699 -10.334 -7 -17.001 -7c-4.66699 0 -9.66699 1 -15 3c-9.33301 6.66699 -14 17.334 -14 32.001c0 7.33301 1.66699 18.333 5 33s5 25.667 5 33
c0.666992 2 2.5 6.5 5.5 13.5s4.5 11.833 4.5 14.5c-72.667 -66 -141.667 -99 -207 -99c-6.66699 0 -13.334 0.333008 -20.001 1c-61.333 29.333 -91.666 63.333 -90.999 102c0.666992 41.333 13.334 87 38.001 137c1.33301 2.66699 25 44 71 124c14 19.333 33.333 49 58 89
c8.66699 6.66699 19.334 18.667 32.001 36s23.667 29.333 33 36c2 6.66699 7.5 13.334 16.5 20.001s14.5 11.667 16.5 15c44.667 42.667 88.334 66.334 131.001 71.001c2 -2 9.33301 -5 22 -9c9.33301 -2.66699 14.666 -7.66699 15.999 -15c0 -8 -2 -15.667 -6 -23
c-6.66699 -3.33301 -14 -5 -22 -5c-3.33301 0 -9.33301 0.333008 -18 1s-14.667 0.666992 -18 0c-6 -1.33301 -11.667 -4.66602 -17 -9.99902c-11.333 -3.33301 -26.333 -14.333 -45 -33c-11.333 -6 -24.333 -18.333 -39 -37c-16 -20.667 -28.667 -34 -38 -40
c-13.333 -17.333 -36 -49 -68 -95l-63 -109c-34 -60 -51 -107 -51 -141c0 -34.667 13.667 -59.334 41 -74.001c8.66699 -2 18 -3 28 -3c32.667 0 78.667 17.333 138 52c18.667 11.333 46.667 34.333 84 69c0.666992 4 4.33398 17 11.001 39
c5.33301 18.667 8 33.334 8 44.001c0 9.33301 -2 17 -6 23c-43.333 -7.33301 -78 -24 -104 -50c-16 -2.66699 -28 3 -36 17c5.33301 16 17 28.667 35 38l46 25c32 9.33301 49.5 14.5 52.5 15.5s6.16699 1.5 9.5 1.5c4 0 9 -1.66699 15 -5c4 -0.666992 6.33301 -1 7 -1
c1.33301 -2.66699 7 -8.33398 17 -17.001c8 -7.33301 12 -20 12 -38c0 -27.333 -5.66699 -56.666 -17 -87.999c-7.33301 -18 -18 -45.667 -32 -83c-0.666992 -6.66699 -4.33398 -22 -11.001 -46c-6 -20.667 -8.33301 -35.334 -7 -44.001z" />
    <glyph glyph-name="H" unicode="H" horiz-adv-x="401" 
d="M116 231c-8.66699 -0.666992 -20.6699 -4.00488 -36.0029 -10.0049c-2 -8.66699 -6 -17 -12 -25l-18 -67c-7.33301 -28.667 -15.333 -50.334 -24 -65.001c-4 -15.333 -6 -27 -6 -35c0 -9.33301 2.33301 -16.5 7 -21.5s7 -8.83301 7 -11.5c0 -2 -0.666992 -4.33301 -2 -7
c-7.33301 -4.66699 -14 -6.66699 -20 -6c-6.66699 2 -13.334 3.66699 -20.001 5c-6 15.333 -9 31.333 -9 48c0 21.333 6 51.666 18 90.999c14.667 48 23.334 79 26.001 93c4.66699 2 6.33398 4 5.00098 6c-3.33301 4.66699 -5 7.66699 -5 9
c-22 8.66699 -31.333 20.667 -28 36c6 6 12.667 9 20 9c2 0 5.33301 -0.333008 10 -1s8 -1 10 -1c5.33301 0 9.33301 4.33301 12 13c5.33301 18 18.666 54 39.999 108l33 156c2.66699 6 13.667 10.667 33 14l29 -22c-6 -4.66699 -9.33301 -9 -10 -13
c-1.33301 -6 -2.66602 -10 -3.99902 -12c-4.66699 -28 -13.667 -57.333 -27 -88c1.33301 -10.667 -1.33398 -24 -8.00098 -40c-7.33301 -18.667 -11.333 -31.667 -12 -39c-8 -17.333 -16.667 -43.333 -26 -78c36.667 4.66699 109 18 217 40
c2.66699 2 5.83398 7.33301 9.50098 16s6.83398 14.334 9.50098 17.001c15.333 44.667 40 110.334 74 197.001c2.66699 2 5.83398 7.16699 9.50098 15.5s7.83398 13.833 12.501 16.5c3.33301 17.333 10.666 24.666 21.999 21.999c10 0 18 -6.66699 24 -20
c2 -2 4.33301 -5 7 -9c-12.667 -13.333 -23.667 -32.333 -33 -57c-10 -27.333 -19 -46.666 -27 -57.999c-4 -17.333 -18.333 -54.666 -43 -111.999c-3.33301 -4 -5 -12.333 -5 -25s-3.33301 -20.667 -10 -24c-35.333 -89.333 -53 -161 -53 -215
c0 -25.333 3.33301 -48.666 10 -69.999c1.33301 -0.666992 3.66602 -1 6.99902 -1h2c10.667 0 14.667 -4.66699 12 -14c-1.33301 -5.33301 -9.33301 -9.66602 -24 -12.999c-2.66699 0 -5.66699 -0.666992 -9 -2c-31.333 26.667 -47 64.334 -47 113.001
c0 30.667 5.66699 66.334 17 107.001l21 75c-20 -2.66699 -44.333 -8 -73 -16l-72 -20c-3.33301 0 -7.16602 -2 -11.499 -6s-8.83301 -6 -13.5 -6c-4 0 -9.33301 1 -16 3z" />
    <glyph glyph-name="I" unicode="I" horiz-adv-x="216" 
d="M209 465c-2 -4.66699 -4.99902 -12.333 -8.99902 -23c-3.33301 -4.66699 -6.83301 -13.667 -10.5 -27s-8.83398 -23 -15.501 -29l-41 -147c-14.667 -54.667 -22.334 -105 -23.001 -151c-8 -13.333 -12 -29 -12 -47c0 -14 2.33301 -27.667 7 -41
c5.33301 -4 7 -12.667 5 -26c-16 -0.666992 -28.333 6 -37 20c-2.66699 4.66699 -8 19 -16 43c1.33301 20.667 5.33301 57.334 12 110.001c15.333 98 40.333 198 75 300c3.33301 9.33301 9.83301 21.833 19.5 37.5s16.167 27.167 19.5 34.5
c6.66699 7.33301 18.334 11 35.001 11c8.66699 -6.66699 13 -15 13 -25c0 -6.66699 -2 -14.334 -6 -23.001c-6.66699 -4 -12 -9.66699 -16 -17z" />
    <glyph glyph-name="J" unicode="J" horiz-adv-x="219" 
d="M185 347c-12 -81.333 -33.333 -157.001 -64 -227.001c-6 -22.667 -22 -59 -48 -109c-6 -12.667 -28.667 -40.667 -68 -84c-4 -8 -11.333 -17 -22 -27c-12.667 -12 -20.667 -20.333 -24 -25c-49.333 -24.667 -80 -37 -92 -37c-8.66699 0 -17 2 -25 6l2 10
c40.667 8 76.334 29.333 107.001 64c16 18 28.667 33 38 45c14.667 18.667 24.667 35.334 30 50.001c56 73.333 97 209 123 407c1.33301 34 5.66602 85.333 12.999 154c1.33301 11.333 7.33301 18.333 18 21c4 2 7.66699 3 11 3c5.33301 0 13 -4.33301 23 -13l8 -13
l-23 -178z" />
    <glyph glyph-name="K" unicode="K" horiz-adv-x="427" 
d="M88 173c-12.667 -43.333 -28.002 -110.668 -46.002 -202.001c2 -4 3 -8.33301 3 -13c0 -3.33301 -0.333008 -6.33301 -1 -9c-4.66699 -8 -10.667 -12 -18 -12s-14.666 4 -21.999 12c6.66699 52.667 20 121.667 40 207c24.667 105.333 39.667 173.666 45 204.999
c-0.666992 4.66699 1 11.167 5 19.5s6 14.5 6 18.5c0 2.66699 -0.666992 5 -2 7l32 148c9.33301 13.333 13.333 23.666 12 30.999l-6 8c10.667 9.33301 22 14 34 14c5.33301 0 11 -1 17 -3l5.5 -11c3 -6 4.5 -10.667 4.5 -14c0 -4 -1.66699 -8 -5 -12
c-8 -14 -15.333 -37 -22 -69s-14.334 -55 -23.001 -69c1.33301 -3.33301 2 -6.66602 2 -9.99902c0 -6 -2.66699 -14.833 -8 -26.5s-8 -19.5 -8 -23.5c0 -3.33301 1 -6.33301 3 -9c47.333 27.333 73 42.333 77 45c29.333 18.667 53.333 36.334 72 53.001l135 84
c4 1.33301 7.66699 2 11 2c5.33301 0 14.333 -6.33301 27 -19c-0.666992 -12.667 -8.33398 -24.667 -23.001 -36c-19.333 -4 -45.666 -16.667 -78.999 -38l-74.5 -50c-25 -16 -41.833 -26.333 -50.5 -31c-18.667 -12.667 -34 -24.667 -46 -36
c-18.667 -8.66699 -30 -17.334 -34 -26.001c-6.66699 -15.333 -10 -30 -10 -44c0 -27.333 13.667 -54.333 41 -81l76 -63c22 -19.333 44.667 -29.666 68 -30.999c2.66699 -4 9.33398 -7.33301 20.001 -10c2.66699 -1.33301 8 -3.66602 16 -6.99902
c-16.667 -9.33301 -33 -11.666 -49 -6.99902c-17.333 5.33301 -28.333 7.66602 -33 6.99902c-73.333 30.667 -132.666 79 -177.999 145c-2.66699 -2.66699 -4.5 -9.16699 -5.5 -19.5s-3.83301 -18.5 -8.5 -24.5z" />
    <glyph glyph-name="L" unicode="L" horiz-adv-x="302" 
d="M261 20c-2.66699 -4 -5.66895 -6.33301 -9.00195 -7h-11c-3.33301 -0.666992 -6 -3 -8 -7c-3.33301 -1.33301 -19.666 -6.33301 -48.999 -15c-6.66699 -4.66699 -18.334 -8.5 -35.001 -11.5s-28.334 -7.16699 -35.001 -12.5c-12.667 -0.666992 -25 -1 -37 -1
c-15.333 0 -25.333 5.33301 -30 16c-24 5.33301 -34.333 28.333 -31 69c5.33301 69.333 20 142.666 44 219.999l69 215c-3.33301 2.66699 -5 6 -5 10c0 6 3 12.333 9 19c0.666992 2.66699 3.33398 11.334 8.00098 26.001c2.66699 9.33301 9.33398 15.666 20.001 18.999
c5.33301 0 14 -6.33301 26 -19c0.666992 -1.33301 3.66699 -3.66602 9 -6.99902c-2.66699 -13.333 -9.16699 -33.833 -19.5 -61.5s-16.5 -49.167 -18.5 -64.5c1.33301 -3.33301 0.333008 -6 -3 -8v-1l-2 -1c-9.33301 -7.33301 -16.666 -22.333 -21.999 -45l-8 -53l-6 -5
c-6.66699 -17.333 -13.834 -44.666 -21.501 -81.999s-15.167 -65 -22.5 -83c-2 -12.667 -4.66699 -35.334 -8 -68.001c-2.66699 -23.333 2 -40.666 14 -51.999c22.667 2.66699 54.334 10 95.001 22c58 17.333 103 27.666 135 30.999l21 -16
c-28.667 -17.333 -51.667 -26.333 -69 -27z" />
    <glyph glyph-name="M" unicode="M" horiz-adv-x="592" 
d="M156 470l-96.001 -309.006c1.33301 -10 -1.33398 -24.667 -8.00098 -44c-9.33301 -27.333 -14.333 -42.666 -15 -45.999c-12.667 -29.333 -22 -61.666 -28 -96.999c-10 -6 -22 -5 -36 3c-1.33301 0.666992 -5.66602 1.66699 -12.999 3c2 18.667 9 43 21 73
c13.333 32.667 21.333 56.334 24 71.001c4 20.667 12.667 49.834 26 87.501s22.666 66.834 27.999 87.501c8 31.333 23 79 45 143c21.333 62 36 109.667 44 143c16 6.66699 24.667 10.334 26 11.001c12.667 0 22 -8 28 -24c4.66699 -11.333 6.66699 -24.333 6 -39
c2.66699 -2 4.33398 -6.16699 5.00098 -12.5s2.33398 -10.5 5.00098 -12.5c-4 -24 -6.66699 -67 -8 -129c-1.33301 -52 4.33398 -87.333 17.001 -106c16 8.66699 33.667 21.667 53 39l50 44c6 8 14.667 16.667 26 26l28 23c55.333 54.667 86.666 85 93.999 91
c36 34 69.333 62 100 84c14.667 10.667 28 10.667 40 0c2.66699 -4.66699 4 -10 4 -16c0 -3.33301 -0.833008 -9.5 -2.5 -18.5s-2.16699 -16.167 -1.5 -21.5c-46 -133.333 -84.667 -260.333 -116 -381c-0.666992 -4 -3 -15.667 -7 -35c-3.33301 -14 -5 -25.667 -5 -35
s1.66699 -17.333 5 -24c-4.66699 -12.667 -15 -31 -31 -55l-5 5c-8 8 -16 10.333 -24 7l-8 18c16.667 100.667 61 263 133 487c0 4 -1 5 -3 3c-12.667 -8 -26.667 -20 -42 -36l-38 -41c-3.33301 -2.66699 -13 -11.334 -29 -26.001l-118 -107
c-4 -8.66699 -13 -18.167 -27 -28.5s-22.667 -17.833 -26 -22.5c-10 -5.33301 -24.333 -14.333 -43 -27c-36 0.666992 -58.333 19.334 -67 56.001c-2.66699 32 -5.66699 64 -9 96c2.66699 10.667 4 17 4 19c0 4 -1.66699 8 -5 12c1.33301 6 2 13.333 2 22
c0 10.667 -1 23.667 -3 39z" />
    <glyph glyph-name="N" unicode="N" horiz-adv-x="482" 
d="M552 535c-1.33301 -2 -1.66699 -6.00293 -1 -12.0029c-7.33301 -2 -13.333 -9.66699 -18 -23c-2.66699 -8 -6.66699 -13.667 -12 -17c-1.33301 -5.33301 -8 -23 -20 -53c-8.66699 -22 -13.334 -40 -14.001 -54c-4 -14 -13 -33.667 -27 -59
c-2.66699 -15.333 -5 -24.666 -7 -27.999c-2.66699 -10 -7 -18.667 -13 -26c-10.667 -38 -30 -97 -58 -177c-6.66699 -28.667 -20.667 -59.667 -42 -93c-8 2.66699 -19.667 7 -35 13c-39.333 52.667 -69.666 134 -90.999 244c-6 16 -10 47.667 -12 95
c-3.33301 12 -5.83301 29.833 -7.5 53.5s-3.83398 41.167 -6.50098 52.5h-1l-49 -164c-5.33301 -13.333 -12 -38.333 -20 -75c-7.33301 -32 -15.666 -56.333 -24.999 -73c1.33301 -3.33301 2 -7 2 -11c0 -8.66699 -4.33301 -22.334 -13 -41.001
s-13.334 -32.334 -14.001 -41.001s-4.16699 -23.167 -10.5 -43.5s-9.16602 -36.166 -8.49902 -47.499c-6 -12.667 -14.333 -19 -25 -19c-17.333 0 -26 6.66699 -26 20c0 2.66699 1.33301 9.33398 4 20.001c2 8.66699 2.33301 15 1 19c22 63.333 51.333 156 88 278
c38 126.667 67 219.334 87 278.001c6 4 12.333 6 19 6c17.333 0 23.333 -0.333008 18 -1c6 -8 13.333 -14.667 22 -20c-2.66699 -40.667 1 -73.667 11 -99c-1.33301 -10 -2 -20.667 -2 -32c0 -14.667 1.33301 -34.667 4 -60c3.33301 -29.333 5.33301 -49 6 -59
c16.667 -94 40 -166 70 -216c-1.33301 4.66699 1.66699 11.334 9 20.001c2 12.667 8.16699 31 18.5 55s16.5 42.333 18.5 55l65 186c26 68 55 126.667 87 176c12 6.66699 19.333 10 22 10c10.667 0 16 -5 16 -15z" />
    <glyph glyph-name="O" unicode="O" horiz-adv-x="463" 
d="M443 356c0 -2 0.332031 -5.00195 0.999023 -9.00195s1 -7 1 -9c-1.33301 -2.66699 -3.66602 -5.66699 -6.99902 -9c-8 -39.333 -30.667 -83.666 -68 -132.999c-4 -3.33301 -10.333 -14.333 -19 -33c-58.667 -59.333 -97.667 -96.666 -117 -111.999
c-50.667 -40 -98.667 -60 -144 -60c-6 0 -12 0.333008 -18 1c-10 2.66699 -23.333 9.66699 -40 21c-44.667 20.667 -67 56.667 -67 108c0 59.333 30 133.666 90 222.999c1.33301 2.66699 17 26 47 70c37.333 54 85 97.667 143 131c42 12 71 18 87 18
c15.333 0 28.333 -3.66699 39 -11h14c42.667 -46.667 64 -97 64 -151c0 -13.333 -1.33301 -27 -4 -41c-1.33301 -1.33301 -2 -2.66602 -2 -3.99902zM329.999 511.998l2 -3.99902l-12 -12c-2 8 -5 12.333 -9 13c-14.667 0 -32 -7.33301 -52 -22
c-14.667 -11.333 -27.667 -18.333 -39 -21c-117.333 -120 -184.333 -234 -201 -342c0 -60 25 -90 75 -90c38 0 80 21 126 63c34 25.333 53 43.333 57 54c28.667 28.667 51.334 56 68.001 82c35.333 55.333 53 111.666 53 168.999c0 20 -2.33301 38.667 -7 56
c2 5.33301 -0.166992 10.833 -6.5 16.5s-9.5 10.5 -9.5 14.5l-18 16c-6 5.33301 -12.333 8 -19 8c-2.66699 0 -5.33398 -0.333008 -8.00098 -1z" />
    <glyph glyph-name="P" unicode="P" horiz-adv-x="393" 
d="M442 459c-8.66699 -8 -19.6729 -20.666 -33.0059 -37.999c-11.333 -7.33301 -25 -20.666 -41 -39.999c-5.33301 -2 -12.166 -7 -20.499 -15s-14.5 -13 -18.5 -15c-10 -4.66699 -33 -19.334 -69 -44.001c-29.333 -19.333 -53.666 -32.333 -72.999 -39l-80 -42
c-12 -36.667 -25.667 -92 -41 -166c6 -5.33301 9 -12 9 -20c0 -5.33301 -3.66699 -17.666 -11 -36.999l-7 -21c-1.33301 -0.666992 -5.33301 -3.66699 -12 -9c-3.33301 -3.33301 -8 -4 -14 -2c-2 4.66699 -6 8 -12 10c-9.33301 1.33301 -13.666 6.66602 -12.999 15.999
c-1.33301 8 0.333984 20.833 5.00098 38.5s7 30.167 7 37.5c0 4 -0.333008 7.66699 -1 11c7.33301 24 16 60.333 26 109c-2 1.33301 -4.33301 2 -7 2c1.33301 0 -10 -3.66699 -34 -11c-1.33301 5.33301 -2 10 -2 14c0 12 5.16699 19.667 15.5 23s25.5 12.333 45.5 27
c0 10.667 4 25.5 12 44.5s12.667 33.5 14 43.5c0.666992 5.33301 5.33398 18.333 14.001 39c6 15.333 9 28.333 9 39c0 4.66699 -0.333008 9.33398 -1 14.001c5.33301 2 8.83301 7.5 10.5 16.5s4.83398 14.833 9.50098 17.5c0 2.66699 2 10.667 6 24
c3.33301 9.33301 5 17.333 5 24c-16.667 -4 -40 -13 -70 -27c-16 3.33301 -25.333 5.66602 -28 6.99902c-10 4 -15 10.667 -15 20c-1.33301 11.333 6 19.666 22 24.999c11.333 0 27.333 3.66699 48 11s36 11.333 46 12c50.667 14 91 23.333 121 28
c107.333 4 173 -22.667 197 -80c0 -16 -6.33301 -31.667 -19 -47zM287.994 538.001c-30.667 2 -58.668 -3.66895 -84.001 -17.002c-17.333 -40 -25.333 -66 -24 -78c-11.333 -17.333 -15.666 -31.666 -12.999 -42.999c-12.667 -26.667 -28 -68 -46 -124l20 6
c3.33301 4 11.333 9 24 15s21 11.667 25 17c10.667 4.66699 30.334 16.667 59.001 36c24 16 44.333 26.333 61 31c6 8.66699 20 24.334 42 47.001l33 33c12 13.333 19.333 27.333 22 42c-10 18 -28 28.333 -54 31c-14.667 0.666992 -36.334 2 -65.001 4z" />
    <glyph glyph-name="Q" unicode="Q" horiz-adv-x="508" 
d="M508 -34c-14.667 10 -37.999 31.0029 -69.999 63.0029c-28 28 -52.333 47 -73 57c-16.667 -17.333 -36 -35 -58 -53c-27.333 -36.667 -68.333 -55 -123 -55c-10 0 -19.667 0.666992 -29 2l2 11c-60 6 -98 42.333 -114 109c-15.333 -5.33301 -31 -18 -47 -38
c0 -8.66699 -1 -13.667 -3 -15c-9.33301 -9.33301 -18.666 -10.333 -27.999 -3l-5 4c-4 3.33301 -10 4.66602 -18 3.99902c-1.33301 14 3.33398 26.667 14.001 38c16.667 17.333 26 28 28 32c20 12 39.333 24.333 58 37c1.33301 12.667 5.66602 29.667 12.999 51
c8 24 13 40.667 15 50c13.333 34.667 30.666 67 51.999 97l63 89l70 56c30.667 22 56.334 35.333 77.001 40c18 4 35.667 6 53 6c21.333 0 37 -4.33301 47 -13c23.333 -10.667 38 -22.334 44 -35.001c0 -8 -5.66699 -17 -17 -27c-4 0.666992 -7 0.666992 -9 0
c0.666992 -4 3.66699 -12.667 9 -26c4.66699 -10 6.66699 -18.667 6 -26c7.33301 -26 11 -51.333 11 -76c0 -34 -7 -64 -21 -90c0 -2.66699 0.333008 -7 1 -13s-1.33301 -10.667 -6 -14c-8.66699 -40.667 -25 -72 -49 -94c-1.33301 -2 -3 -5.66699 -5 -11
c18 -13.333 42.167 -35.833 72.5 -67.5s54.166 -53.834 71.499 -66.501c28 -6.66699 54 -14 78 -22c-26.667 -9.33301 -49.334 -14 -68.001 -14s-32.667 4.33301 -42 13zM291.001 447.003c-15.333 -17.333 -24.6699 -27.334 -28.0029 -30.001
c-1.33301 -8.66699 -10.666 -24.667 -27.999 -48c-10 1.33301 -17 9.33301 -21 24c-6 -5.33301 -14.667 -12.666 -26 -21.999c-30 -48.667 -45.333 -74.334 -46 -77.001c-16.667 -27.333 -27 -55 -31 -83c-4 -3.33301 -6.66699 -9.33301 -8 -18
c25.333 4.66699 50.333 7 75 7c56 0 107 -12.333 153 -37c0.666992 -0.666992 5 -1.5 13 -2.5s12.667 -4.16699 14 -9.5h1c1.33301 2 3.33301 4.66699 6 8c39.333 62.667 59 126.334 59 191.001c0 48.667 -12.333 89 -37 121c-16 5.33301 -28.333 8 -37 8
c-9.33301 0 -18.666 -2.16699 -27.999 -6.5s-19.666 -12.833 -30.999 -25.5zM270.997 132.002c-29.333 12.667 -59.999 18.999 -91.999 18.999c-58 0 -86.667 -13.333 -86 -40c0.666992 -23.333 10.167 -44.666 28.5 -63.999s39.166 -29 62.499 -29c38 0 85 30.667 141 92
c-23.333 14.667 -41.333 22 -54 22z" />
    <glyph glyph-name="R" unicode="R" horiz-adv-x="408" 
d="M439 391c-2 -6.66699 -12.666 -20.6592 -31.999 -41.9922c-27.333 -22.667 -62 -48.667 -104 -78l-46 -28c-16 -8 -44 -18.333 -84 -31c-3.33301 -0.666992 -12 -4.33398 -26 -11.001c-7.33301 -2 -11 -6 -11 -12c20 -12.667 47.5 -36.334 82.5 -71.001
s62.5 -58 82.5 -70c11.333 -6.66699 33 -14.334 65 -23.001c9.33301 -2.66699 22 -4.33398 38 -5.00098c14 -0.666992 30.333 -2.33398 49 -5.00098c-10 -10 -25.333 -18.333 -46 -25c-48.667 -3.33301 -94 7.66699 -136 33c-28.667 17.333 -62.334 46.333 -101.001 87
c-4.66699 2 -18.334 11 -41.001 27c-16 11.333 -30.667 18.666 -44 21.999l-2 -3c0 -6.66699 -3 -20.334 -9 -41.001c-5.33301 -18 -7 -31 -5 -39c1.33301 2 5.33301 9.33301 12 22c4.66699 8.66699 13 13 25 13c2 -14 -2.16699 -30.5 -12.5 -49.5
s-15.5 -32.833 -15.5 -41.5c-5.33301 -10 -16.666 -23 -33.999 -39c-22.667 4.66699 -34 18.667 -34 42c0 10 3.33301 27.333 10 52c6 22.667 8.66699 39.334 8 50.001c7.33301 16 10 29.333 8 40h-72c-0.666992 6 -4.5 11 -11.5 15s-10.5 8 -10.5 12
c0 3.33301 1 7.33301 3 12c22.667 14 57 20.333 103 19l4 3c0.666992 6.66699 3.66699 19 9 37c4.66699 15.333 6.66699 27.666 6 36.999l12 21c15.333 46.667 35 117.334 59 212.001c-10 3.33301 -15 11.666 -15 24.999c-1.33301 6.66699 1.66699 12.334 9 17.001
c6 2.66699 12 5.66699 18 9c6 -6 16.333 -10.667 31 -14c8 -2 18.333 -7 31 -15c22 -2.66699 54.667 -9.33398 98 -20.001c54 -21.333 85.667 -35 95 -41c32 -20.667 48.333 -50.334 49 -89.001zM261.001 494.008c-4 -1.33301 -7.99902 -2 -11.999 -2
c-6 0 -14.333 1.83301 -25 5.5s-18.334 5.5 -23.001 5.5s-9 -1 -13 -3c-2 -7.33301 -6.16699 -18.5 -12.5 -33.5s-8.83301 -27.833 -7.5 -38.5h-5c-3.33301 -14 -11.333 -38.667 -24 -74c-11.333 -32 -17.666 -57.333 -18.999 -76
c-0.666992 -3.33301 -4.16699 -10.5 -10.5 -21.5s-9.16602 -19.167 -8.49902 -24.5c25.333 4 62.666 18 111.999 42c43.333 21.333 78.666 41.333 105.999 60c8.66699 6 32.667 28.667 72 68c5.33301 10.667 8 20 8 28c0 6 -1.66699 11 -5 15c-32.667 18 -77 34.333 -133 49
z" />
    <glyph glyph-name="S" unicode="S" horiz-adv-x="342" 
d="M346 556c-4 -7.33301 -13.6689 -16.668 -29.002 -28.001l-3 11c-3.33301 -5.33301 -6.66602 -8 -9.99902 -8c-2.66699 0 -6.66699 3.66699 -12 11l-2 1c-2.66699 0.666992 -5.66699 1 -9 1c-6.66699 0 -15.5 -2.66699 -26.5 -8s-19.167 -8.33301 -24.5 -9
c-26 -19.333 -43.333 -33.333 -52 -42c-17.333 -16.667 -29.666 -35 -36.999 -55c-6.66699 -1.33301 -14 -10.333 -22 -27c-2 -9.33301 -3 -18 -3 -26c0 -28 14.667 -52 44 -72c14 -9.33301 40.333 -25.666 79 -48.999l46 -46c17.333 -20.667 26 -39.334 26 -56.001
c0 -12.667 -4 -25.667 -12 -39c-20 -26 -48 -49.333 -84 -70c-20 -12 -53.333 -28 -100 -48c-7.33301 0.666992 -14.333 -1.66602 -21 -6.99902c-19.333 -2 -37 -3 -53 -3c-35.333 0 -62.333 5 -81 15l-4 18c6 2.66699 11.333 4 16 4c3.33301 0 8.5 -1.16699 15.5 -3.5
s12.833 -3.16602 17.5 -2.49902c75.333 -3.33301 154.666 29.334 237.999 98.001c18.667 15.333 26.334 32.666 23.001 51.999c-4 13.333 -22.333 33.666 -55 60.999c-43.333 26.667 -75.666 50.334 -96.999 71.001c-29.333 15.333 -44 41.666 -44 78.999
c0 8.66699 1 17.667 3 27c13.333 39.333 35.166 75 65.499 107s64.833 56 103.5 72c14.667 6 31.667 9 51 9c37.333 0 56 -7.33301 56 -22c0 -1.33301 -0.5 -3.83301 -1.5 -7.5s-1.5 -6.5 -1.5 -8.5z" />
    <glyph glyph-name="T" unicode="T" horiz-adv-x="562" 
d="M682 616c-9.33301 5.33301 -21.0029 7.99414 -35.0029 7.99414c-11.333 0 -33.333 -3.66699 -66 -11c-20 -0.666992 -66.667 -11.334 -140 -32.001c-55.333 -15.333 -117.333 -31.333 -186 -48c-8 -2 -13.667 -7.66699 -17 -17
c-5.33301 -14.667 -8.66602 -22.667 -9.99902 -24c-36 -170.667 -74.667 -336 -116 -496c-8.66699 -10.667 -17.667 -12 -27 -4c-3.33301 2.66699 -8.33301 9.33398 -15 20.001l46 194c18 77.333 31 143 39 197c5.33301 6.66699 9 17.834 11 33.501s4.33301 26.5 7 32.5
c4.66699 23.333 7 33 7 29c0.666992 4 -1 9.33301 -5 16l5 5l-2 2c-22 -2.66699 -42.667 -4 -62 -4c-36.667 0 -67.334 4.66699 -92.001 14c-0.666992 1.33301 -2.33398 5 -5.00098 11c-1.33301 1.33301 -3.66602 2 -6.99902 2
c-0.666992 4.66699 -4.16699 10.334 -10.5 17.001s-9.16602 13.667 -8.49902 21c10.667 9.33301 19 14 25 14c12.667 0 29.667 -10 51 -30c21.333 -0.666992 40.333 -1 57 -1c28.667 0 50.334 1.33301 65.001 4c6 6 9 14.667 9 26c0 2.66699 -0.333008 6.33398 -1 11.001v12
c0 19.333 11.667 29.666 35 30.999c8.66699 -4 14.834 -12.333 18.501 -25s7.16699 -20 10.5 -22c3.33301 -13.333 14 -17.666 32 -12.999c27.333 6.66699 53.333 14.334 78 23.001c26.667 2.66699 62 9.33398 106 20.001c15.333 4 49.333 11 102 21
c5.33301 0.666992 17 2.83398 35 6.50098s31.333 5.5 40 5.5c28 0 45.333 -12 52 -36c0 -7.33301 -3.33301 -12.333 -10 -15c-2 -0.666992 -4.33301 -1 -7 -1c-3.33301 0 -6.33301 1 -9 3z" />
    <glyph glyph-name="U" unicode="U" horiz-adv-x="417" 
d="M284 203l-49.001 -78.999c-6 -5.33301 -14 -15.833 -24 -31.5s-19 -26.5 -27 -32.5c-37.333 -62 -79.333 -96.333 -126 -103c-38.667 14.667 -60 37.667 -64 69c2 72.667 18 157.667 48 255c8.66699 28 38 110 88 246c3.33301 4 7.66602 14.667 12.999 32
c4 13.333 11 22.666 21 27.999c13.333 1.33301 24.333 -1.33398 33 -8.00098c2 -8.66699 4.66699 -21.667 8 -39c-10 -8 -19.333 -22.333 -28 -43c-9.33301 -22.667 -17.333 -37.667 -24 -45c-3.33301 -15.333 -13.666 -43.666 -30.999 -84.999c-14.667 -34 -23 -63 -25 -87
l-7 -4c-29.333 -108 -44 -182 -44 -222c0 -17.333 1.66699 -33 5 -47c1.33301 -3.33301 5 -5 11 -5c5.33301 -0.666992 10.666 1 15.999 5c34.667 26 79.334 82 134.001 168c11.333 14 24.833 35.833 40.5 65.5s27.834 50.5 36.501 62.5
c34.667 65.333 69.667 158.666 105 279.999c18 12.667 31.667 16.334 41 11.001c8.66699 -4.66699 13 -11.667 13 -21c0 -6 -3.16699 -16.333 -9.5 -31s-9.5 -25 -9.5 -31c-3.33301 -14 -24 -80 -62 -198c-25.333 -78.667 -41.333 -145.667 -48 -201
c9.33301 -3.33301 14 -10.666 14 -21.999c0 -4.66699 -5.33301 -22 -16 -52c-0.666992 -2 -7 -8 -19 -18c-6 -2 -10.333 -1.66699 -13 1l-9 6c-1.33301 0 -5 -0.666992 -11 -2c-1.33301 47.333 5 106.666 19 177.999z" />
    <glyph glyph-name="V" unicode="V" horiz-adv-x="422" 
d="M442 494l-6.99902 -20.9971c-9.33301 -19.333 -22 -50 -38 -92c-6.66699 -8 -13 -19.333 -19 -34c-2 -5.33301 -7.33301 -17.666 -16 -36.999c-9.33301 -21.333 -34 -70 -74 -146l-5 -20c-6 -0.666992 -10 -5 -12 -13l-4 -8c-12.667 -13.333 -31.334 -39.333 -56.001 -78
c-22 -34.667 -43 -59.334 -63 -74.001c-22 0 -37.667 7 -47 21c-6 9.33301 -11.333 25.5 -16 48.5s-10 39.167 -16 48.5c-8 45.333 -14.333 113.833 -19 205.5s-11 160.167 -19 205.5c1.33301 13.333 7.66602 20 18.999 20c11.333 -1.33301 18.333 -2.66602 21 -3.99902
c7.33301 -2.66699 12 -7.66699 14 -15c8 -28 9 -53.667 3 -77c3.33301 -6.66699 5.33301 -16.334 6 -29.001c0.666992 -18 1.33398 -28 2.00098 -30c-4.66699 -8.66699 -7 -17.334 -7 -26.001c0 -6 1.66699 -14.833 5 -26.5s5 -20.5 5 -26.5
c0 -4.66699 -0.666992 -9.33398 -2 -14.001c2 -4.66699 2.83301 -12.834 2.5 -24.501s0.833984 -19.5 3.50098 -23.5c-2 -76.667 10.667 -141.667 38 -195c48 50 94 121 138 213l53 114c13.333 22 27.666 54.333 42.999 97c16 47.333 29 80.333 39 99
c4 4.66699 9.33301 7 16 7c4.66699 0 10 -1 16 -3c6 -6.66699 9 -14 9 -22c0 -8.66699 -4.33301 -22 -13 -40z" />
    <glyph glyph-name="W" unicode="W" horiz-adv-x="601" 
d="M590 468c-6 -18 -9.99902 -29.6709 -11.999 -35.0039c-6 -14 -12.333 -25 -19 -33c-1.33301 -3.33301 -14 -44.666 -38 -123.999c-19.333 -62.667 -39.666 -119.334 -60.999 -170.001l-30 -71c-4.66699 0 -10 -2.66699 -16 -8s-12 -7.33301 -18 -6
c-12.667 11.333 -31 41.333 -55 90c-3.33301 12.667 -8 28.334 -14 47.001c-11.333 36.667 -19.333 79 -24 127c-2.66699 31.333 -5.33398 56 -8.00098 74c-4 -2 -7.66699 -7 -11 -15c-4 -10 -7 -16 -9 -18c-16 -44 -40.667 -103 -74 -177
c-15.333 -34 -27.333 -59.333 -36 -76c-14.667 -30 -28.667 -54 -42 -72c-2 -0.666992 -7.33301 -2.66699 -16 -6c-6 -2.66699 -11 -4 -15 -4c-2.66699 0 -5.66699 0.333008 -9 1c-26 42 -39 79 -39 111c0 6.66699 0.333008 13 1 19c-2.66699 16 -4.66699 66.667 -6 152
c-1.33301 62.667 -8.33301 112 -21 148c-1.33301 1.33301 -2 4.33301 -2 9c0 4 0.333008 9 1 15c4 0.666992 10 3.33398 18 8.00098s15 4.66699 21 0c3.33301 -4 5.83301 -12.833 7.5 -26.5s4.16699 -22.5 7.5 -26.5s5 -9 5 -15c0 -2.66699 -0.333008 -6.5 -1 -11.5
s-1 -8.83301 -1 -11.5c0 -5.33301 1.33301 -9.66602 4 -12.999c-1.33301 -10 -1.33301 -22.333 0 -37c2 -20.667 3 -33 3 -37c0 -8 -0.666992 -15.333 -2 -22c2 -12.667 2.33301 -28.667 1 -48c-2 -26 -2.66699 -42.333 -2 -49
c1.33301 -5.33301 4.66602 -24.666 9.99902 -57.999c4 -24 9.33301 -42.667 16 -56c46 80.667 90.333 165.667 133 255c4.66699 14.667 13.5 35.667 26.5 63s21.833 48 26.5 62c6.66699 2 13 3 19 3c16.667 0 25.834 -7.83301 27.501 -23.5l7.5 -71.5
c3.33301 -29.333 4.66602 -54 3.99902 -74c0.666992 -1.33301 8 -31 22 -89c8.66699 -36 20.334 -64.333 35.001 -85c2.66699 4.66699 19.667 47.667 51 129c51.333 132 104.333 250 159 354c3.33301 0.666992 8.66602 0 15.999 -2h13
c-10.667 -24.667 -18.334 -41.667 -23.001 -51c-9.33301 -18.667 -19.666 -33.667 -30.999 -45z" />
    <glyph glyph-name="X" unicode="X" horiz-adv-x="416" 
d="M366 -10c-2.66699 2.66699 -5.33594 4.66406 -8.00293 5.99707c-13.333 16 -34.666 37.667 -63.999 65s-50.333 48 -63 62c-10 4 -21 14.667 -33 32c-14 19.333 -24.333 31.333 -31 36c-2 5.33301 -8.33301 12 -19 20c-15.333 -10 -36 -33 -62 -69
c-16.667 -14.667 -50 -55.334 -100 -122.001c-4 -3.33301 -11 -15.333 -21 -36c-8 -16.667 -17.667 -25 -29 -25c-14.667 0 -22 5 -22 15c0 3.33301 2.33301 8.5 7 15.5s7.33398 11.833 8.00098 14.5c18 24.667 44.333 58.667 79 102c10.667 17.333 22.334 32.333 35.001 45
c0 8 3.66699 13.333 11 16c14.667 18.667 38 46.334 70 83.001c2 8.66699 -2.66699 17 -14 25c-50.667 82 -73 158.667 -67 230c4.66699 10 15 15.667 31 17c12.667 -2 19 -9.33301 19 -22c0 -3.33301 -0.5 -8.16602 -1.5 -14.499s-1.5 -11.166 -1.5 -14.499
c0 -6 1.66699 -11 5 -15c3.33301 -56 23.333 -110 60 -162l3 -3c26.667 24.667 56.334 56.667 89.001 96l84 101l11 6c6 2.66699 10.667 4 14 4c10 0 15 -5 15 -15c0 -3.33301 -6 -13.666 -18 -30.999c-18.667 -22 -46.667 -57.333 -84 -106l-82 -86l-4 -16
c31.333 -34 76 -87.667 134 -161c23.333 -22 44.666 -51.333 63.999 -88c-5.33301 -5.33301 -10.333 -7 -15 -5z" />
    <glyph glyph-name="Y" unicode="Y" horiz-adv-x="354" 
d="M-49 -38v-2.99902h-14c2.66699 12.667 10 22.334 22 29.001c9.33301 5.33301 14.333 11.333 15 18c24 18.667 46.667 40 68 64l60 71c8 8.66699 17.667 23 29 43c6 6 13 15.333 21 28c-10 16 -14.333 27.667 -13 35c-6.66699 8 -16.667 31 -30 69l11 4
c-11.333 32 -20 72 -26 120c-4.66699 41.333 -9 82.333 -13 123c2 6.66699 7.66699 16 17 28c2.66699 0.666992 5.33398 1 8.00098 1c8.66699 0 15.667 -5 21 -15l2 -3c0.666992 -1.33301 1.66699 -3 3 -5c-0.666992 -12.667 0.666016 -52 3.99902 -118
c4 -85.333 18.667 -150.333 44 -195c30 34.667 62 87 96 157c5.33301 11.333 20 37.666 44 78.999c6 14.667 13.333 37 22 67c10.667 5.33301 18.667 8 24 8c10.667 0 16 -7.66699 16 -23c0 -5.33301 -6 -20.333 -18 -45c-4 -7.33301 -6 -14.666 -6 -21.999
c-6 -2.66699 -9 -6.33398 -9 -11.001c-1.33301 -6.66699 -3.66602 -11.667 -6.99902 -15h-1c-6.66699 -14.667 -29.667 -58.334 -69 -131.001l-43 -62c-0.666992 -2 -8.33398 -12.667 -23.001 -32c-8 -10.667 -8 -20 0 -28l-3 -12c-10 -5.33301 -24 -15 -42 -29
c-18.667 -19.333 -45.667 -50.333 -81 -93c-10 -6.66699 -29.667 -25.667 -59 -57c-22.667 -24 -46 -39 -70 -45z" />
    <glyph glyph-name="Z" unicode="Z" horiz-adv-x="539" 
d="M462 315c-81.333 -60 -192.669 -132.665 -334.002 -217.998l-49 -28c-17.333 -10 -31.333 -22.333 -42 -37c4 -2 11 -2.66699 21 -2c26 2 68.667 8.66699 128 20l164 32c58.667 10.667 114.334 15 167.001 13c8 0 12 -4.33301 12 -13c0 -6.66699 -2 -13.334 -6 -20.001
l-65 -8c-56 -6.66699 -109.667 -14.667 -161 -24c-4.66699 -4 -12.5 -6 -23.5 -6s-18.167 -1.66699 -21.5 -5c-4 -0.666992 -39.333 -8.66699 -106 -24c-43.333 -10 -78.666 -15 -105.999 -15c-28 0 -52 9 -72 27c-1.33301 17.333 5 32.333 19 45l40 31l251 151
c22.667 14 40.334 25.333 53.001 34c49.333 34 80.333 56 93 66c34 26 61.333 52 82 78c-19.333 8 -52.333 11.667 -99 11c-66 -0.666992 -126 -6.33398 -180 -17.001c-6 -4 -19 -6.66699 -39 -8c-17.333 -0.666992 -29.333 -4.66699 -36 -12
c-18.667 0 -71 -3.66699 -157 -11c-5.33301 2.66699 -8 7.66699 -8 15c0 6 2 13.333 6 22l17 16c50 0 114 6 192 18c100.667 15.333 163.667 23.666 189 24.999c90 4.66699 145 -9.66602 165 -42.999c-4.66699 -24 -17.334 -45.333 -38.001 -64z" />
    <glyph glyph-name="bracketleft" unicode="[" horiz-adv-x="285" 
d="M403 700c0.666992 -1.33301 4.66797 -5.00293 12.001 -11.0029c5.33301 -4 8 -8 8 -12c0 -5.33301 -2.66699 -10.666 -8 -15.999c-2 0.666992 -4.66699 1 -8 1h-6c-3.33301 0 -10 -0.666992 -20 -2l-41 -6c-34.667 -4.66699 -55.334 -7 -62.001 -7h-6
c-6.66699 0.666992 -12 -1.66602 -16 -6.99902c-9.33301 -28 -36 -114 -80 -258c-5.33301 -6 -9.33301 -15.333 -12 -28c-4 -20 -9 -37.333 -15 -52c-2 -5.33301 -3.33301 -8.66602 -4 -9.99902l-58 -225c-4.66699 -16 -11.334 -40.667 -20.001 -74
c-2.66699 -12 -7.33398 -30.333 -14.001 -55c-2.66699 -8.66699 -4 -17.667 -4 -27c0 -2 -2.16699 -11.667 -6.5 -29s-6.5 -27 -6.5 -29c4 0 7.33301 -1 10 -3l17 -1c14.667 -0.666992 37.334 -2 68.001 -4c10.667 -0.666992 17 -1 19 -1c4 4 9 6 15 6l6 1
c3.33301 0 6 0.666992 8 2c5.33301 -4.66699 8.66602 -9.66699 9.99902 -15c0.666992 -4 -1 -8.16699 -5 -12.5l-12 -12.5l-28 -6l-67 -3h-15c-7.33301 -2.66699 -20.333 -4.33398 -39 -5.00098c-9.33301 0 -17.333 4.33301 -24 13c-7.33301 6 -10 16.333 -8 31
c3.33301 14 7.33301 35.333 12 64c0.666992 6.66699 0.333984 10.667 -0.999023 12c14.667 64.667 28.334 122.334 41.001 173.001l10 40c6 25.333 10.333 39.333 13 42c4 7.33301 6.33301 18 7 32c0 -2 4.33301 10 13 36c5.33301 16 13 40.333 23 73
c2.66699 10.667 5 19.334 7 26.001c0 3.33301 -0.333008 5.66602 -1 6.99902l35 121c10 28 23.667 70.333 41 127c1.33301 8 3.66602 19 6.99902 33l13 54c14.667 9.33301 30 13 46 11c6 -0.666992 14.667 -0.666992 26 0c4.66699 0.666992 19.667 2 45 4
c18.667 2 34 3 46 3h15c4.66699 0 9.33398 -0.333008 14.001 -1z" />
    <glyph glyph-name="backslash" unicode="\" horiz-adv-x="694" 
d="M192 -54c5.33301 2 10.3301 3.00391 14.9971 3.00391c8.66699 0 20.334 -3.66699 35.001 -11h-56c-2.66699 -1.33301 -6.33398 -2 -11.001 -2l-29 7c-11.333 2.66699 -21 3.66699 -29 3c-34 14.667 -56.333 35.334 -67 62.001c-10.667 18.667 -16 41.667 -16 69
c0 14 1.66699 28 5 42c2 9.33301 6.66699 22 14 38c5.33301 7.33301 11.333 18 18 32c21.333 28 47 52 77 72l22 15c14.667 9.33301 43 22.333 85 39c5.33301 0 13.5 2.83301 24.5 8.5s19.833 8.16699 26.5 7.5c2 1.33301 13 4.66602 33 9.99902c4 4 10.667 6.66699 20 8h4
c4 0 7.33301 1.66699 10 5c4 0 10.667 1.16699 20 3.5s16.333 3.16602 21 2.49902c12 2.66699 30.333 5.33398 55 8.00098c6.66699 2.66699 16.667 4.16699 30 4.5s23 1.5 29 3.5c94 0 142 -25.333 144 -76c0.666992 -19.333 -6 -39.333 -20 -60
c-19.333 -28 -30 -45.667 -32 -53c-20.667 -26 -44 -46 -70 -60c-1.33301 -0.666992 -7.66602 -5.66699 -18.999 -15c-3.33301 0.666992 -5.66602 0.333984 -6.99902 -0.999023l-3 -4c-22 -14.667 -52.667 -30.667 -92 -48c-48 -21.333 -79.333 -36.333 -94 -45
c-4.66699 0 -11.5 -2.16699 -20.5 -6.5s-15.167 -6.83301 -18.5 -7.5c-5.33301 -0.666992 -15.333 -4.33398 -30 -11.001c-12 -5.33301 -22 -8 -30 -8c-10 -4.66699 -23 -7 -39 -7h-40c-31.333 11.333 -48.333 34.333 -51 69c-2 24 1.33301 58 10 102
c2.66699 1.33301 5.33398 6.66602 8.00098 15.999c0 2 1.33301 5 4 9c11.333 17.333 30.333 41.333 57 72l29 26c-6.66699 -4 -19 -10.667 -37 -20c-10.667 -8.66699 -27.334 -21.334 -50.001 -38.001v-1c0 -2 -0.666992 -3.66699 -2 -5l-20 -21
c-12 -12 -18.333 -18.667 -19 -20v-10c0 -5.33301 -3 -10 -9 -14c-2 0.666992 -3.66699 -0.666016 -5 -3.99902l-1 -2c0.666992 -4 -1.66602 -9.66699 -6.99902 -17c-1.33301 -18.667 -2 -31.334 -2 -38.001c0 4.66699 0.333008 -1.33301 1 -18v-19
c9.33301 -22.667 18.666 -38 27.999 -46c2.66699 -3.33301 18.334 -13 47.001 -29c4 -0.666992 10 -1.83398 18 -3.50098s14 -2.83398 18 -3.50098l5 -5c1.33301 1.33301 3.33301 2 6 2c2 0 4.33301 -0.333008 7 -1c0.666992 -3.33301 0.666992 -6.33301 0 -9z
M639.997 279.004c2 7.33301 3 13.668 3 19.001c0 22 -18.667 35.333 -56 40c-16 5.33301 -34 7.33301 -54 6h-6c1.33301 -0.666992 3 -1.33398 5 -2.00098c57.333 -6 93.333 -27 108 -63zM452.997 318.006c15.333 -8 21.6689 -22.3301 19.002 -42.9971
c-1.33301 -1.33301 -2.33301 -2 -3 -2l-2 -1c-2 -2 -5.33301 -3 -10 -3c-5.33301 9.33301 -19.333 17.333 -42 24c-18 -0.666992 -59.667 -9.66699 -125 -27c-2 -2.66699 -6 -5.66699 -12 -9l-3 -1c-1.33301 -0.666992 -3.33301 -2.66699 -6 -6
c-30 -12 -56.333 -31.667 -79 -59s-38 -57 -46 -89c0 -2.66699 -0.333008 -7 -1 -13s-1 -10.333 -1 -13c0 -8.66699 2.33301 -15.334 7 -20.001c10 -7.33301 24.667 -9.66602 44 -6.99902c21.333 2.66699 58.666 11.334 111.999 26.001l2 2
c6 3.33301 10.333 4.66602 13 3.99902c16 5.33301 39 14.666 69 27.999c3.33301 -0.666992 12.666 2.66602 27.999 9.99902c4 3.33301 12 7 24 11s20 8 24 12c51.333 22 98 52.667 140 92c8 7.33301 11 14 9 20c0 37.333 -53.667 58.666 -161 63.999zM332 50.0088
l-11.001 -4.00098c-14 -3.33301 -34.667 -10.666 -62 -21.999c-5.33301 -1.33301 -21.666 -4.33301 -48.999 -9c-18.667 -3.33301 -39 -2.33301 -61 3c3.33301 -2 6 -4.66699 8 -8c8.66699 -2.66699 18 -4 28 -4c18.667 0 42 5 70 15l67 24z" />
    <glyph glyph-name="bracketright" unicode="]" horiz-adv-x="320" 
d="M-92 -191l-11.002 10.001c-5.33301 4.66699 -7.66602 9 -6.99902 13c0 5.33301 2.66699 10.666 8 15.999c1.33301 -0.666992 3.66602 -1 6.99902 -1h5c-2 0 17 2 57 6s59 6 57 6l6 -1c6 -1.33301 11 1 15 7l35 110l46 146c5.33301 6.66699 9.33301 15.834 12 27.501
s7.66699 29.167 15 52.5c2 4.66699 3.33301 7.66699 4 9l60 223l21 74c2.66699 12 7.33398 30.333 14.001 55c2.66699 8 4 16.667 4 26c0 -0.666992 2.66699 9 8 29c4 17.333 6 27 6 29c-4 0 -7 1 -9 3c-2.66699 0 -29 2.66699 -79 8c-10 0.666992 -16 1 -18 1
c-2.66699 -4 -7 -6 -13 -6h-6c-3.33301 0 -5.66602 -0.666992 -6.99902 -2c-5.33301 4.66699 -8.66602 9.66699 -9.99902 15c0 1.33301 5.66699 9.66602 17 24.999c6 0.666992 14.667 2.33398 26 5.00098c6 0.666992 13 1 21 1h55c6.66699 2.66699 18.667 4 36 4
c7.33301 0 14.666 -4.66699 21.999 -14c6.66699 -6.66699 8.66699 -17 6 -31c-3.33301 -14 -7.33301 -35.333 -12 -64c-0.666992 -6.66699 -0.666992 -10.667 0 -12c-14.667 -65.333 -28.667 -122.333 -42 -171l-18 -69c-2.66699 -8 -4.66699 -12.333 -6 -13
c-4 -7.33301 -6.33301 -18 -7 -32c0 1.33301 -1 -1.33398 -3 -8.00098l-21 -63c-4.66699 -14 -8.33398 -26 -11.001 -36l-7 -26c-0.666992 -3.33301 -1 -6 -1 -8c-7.33301 -26.667 -19.666 -66.667 -36.999 -120s-30.333 -95.333 -39 -126
c-4 -13.333 -6.66699 -24.333 -8 -33l-14 -53c-13.333 -8.66699 -27.333 -12 -42 -10c-5.33301 0.666992 -13.333 0.666992 -24 0c-10 0 -20 -0.333008 -30 -1l-31 -2c-10 -0.666992 -18 -1 -24 -1h-13c-4.66699 0 -9 0.666992 -13 2z" />
    <glyph glyph-name="asciicircum" unicode="^" 
d="M434 335c-11.333 -14 -20.667 -20.999 -28 -20.999c-8.66699 0 -14.334 10.333 -17.001 31c-2.66699 30 -6.33398 68 -11.001 114c-9.33301 94 -27.666 170.667 -54.999 230c-44 -34 -78.333 -82.667 -103 -146c-4 -2 -7.66699 -7.83301 -11 -17.5
s-7 -15.834 -11 -18.501c0 -9.33301 -5.33301 -20.333 -16 -33c-5.33301 -8 -17 -21 -35 -39c2 -2 3 -3.33301 3 -4c0 -2.66699 -4 -3.66699 -12 -3l9 7l-10.5 8.5c-3.66699 3 -5.5 7.83301 -5.5 14.5c0 16 9.33301 42 28 78c28 54.667 53.667 98.334 77 131.001
c8 5.33301 18.333 16.5 31 33.5s23.334 28.167 32.001 33.5c13.333 8 30.333 7.66699 51 -1c13.333 -19.333 24.5 -48.333 33.5 -87s17.167 -66.667 24.5 -84c0.666992 -4.66699 1 -7.33398 1 -8.00098c-0.666992 -8 1.66602 -13.333 6.99902 -16l-2 -18
c9.33301 -66 15.333 -115.667 18 -149c0.666992 -2.66699 1.33398 -14.667 2.00098 -36z" />
    <glyph glyph-name="underscore" unicode="_" horiz-adv-x="365" 
d="M363 3c-32.667 0.666992 -80.333 -1.66699 -143 -7c-74 -6 -131.333 -14 -172 -24c-13.333 2 -25.333 8.33301 -36 19c4.66699 12.667 12.667 19.667 24 21c18 2 28.333 3.33301 31 4c53.333 14 132 21 236 21c20.667 0 39.667 -2 57 -6l10 -11
c0 -5.33301 -2.33301 -11 -7 -17z" />
    <glyph glyph-name="grave" unicode="`" horiz-adv-x="55" 
d="M45 487l-19.001 0.998047c1.33301 4 2 7.66699 2 11s-0.666992 6.33301 -2 9c-2 7.33301 -3 12.666 -3 15.999c-0.666992 7.33301 -3 17.666 -7 30.999l-7 41c-2 10.667 -1.66699 17.334 1 20.001c1.33301 0.666992 2.33301 1.33398 3 2.00098l1 1
c2.66699 1.33301 5.66699 2 9 2c2 0 4.33301 -0.333008 7 -1c4 -7.33301 7 -16.666 9 -27.999c2 -8.66699 3.83301 -18.167 5.5 -28.5s3.16699 -25.166 4.5 -44.499c0.666992 -11.333 -0.666016 -22 -3.99902 -32z" />
    <glyph glyph-name="a" unicode="a" horiz-adv-x="219" 
d="M175 -10c-8.66699 -0.666992 -22.667 4.66699 -42 16c-0.666992 5.33301 -3.33398 14.333 -8.00098 27s-7 22.667 -7 30c-5.33301 -6 -9 -11.333 -11 -16c-24.667 -30.667 -39 -48 -43 -52c-19.333 -16.667 -40 -23.334 -62 -20.001c-18 14 -27 34.667 -27 62
c0 47.333 4.66699 83.333 14 108c23.333 64 69.666 120.333 138.999 169h16c15.333 0 23 -9 23 -27c0 -6 -2 -18 -6 -36c-3.33301 -8.66699 -10.666 -20 -21.999 -34c-2 -4.66699 -10 -9.33398 -24 -14.001c3.33301 17.333 8.66602 30.666 15.999 39.999
c0.666992 2 2.33398 7.33301 5.00098 16c0.666992 1.33301 1 3.33301 1 6c0 2 -0.333008 4.33301 -1 7c3.33301 2.66699 5 5 5 7c-4 0.666992 -11 -5 -21 -17c-2 -1.33301 -5.33301 -4.33301 -10 -9c-68.667 -78.667 -103.667 -150 -105 -214
c2.66699 -19.333 8.66699 -30 18 -32c22.667 6 42.334 23.333 59.001 52c18.667 16.667 35.334 46.667 50.001 90c7.33301 16.667 21 59 41 127c2.66699 6 10 11 22 15c6 -6.66699 9 -14 9 -22c0 -4.66699 -1.33301 -11 -4 -19c-2.66699 -10 -4.33398 -16.667 -5.00098 -20
c-26.667 -73.333 -40 -122 -40 -146c0 -31.333 6.33301 -52.666 19 -63.999c2.66699 0.666992 11 5 25 13c12 6.66699 19.333 10 22 10c0.666992 -3.33301 1 -6.66602 1 -9.99902c0 -12.667 -3.66699 -20.667 -11 -24s-19.333 -9.66602 -36 -18.999z" />
    <glyph glyph-name="b" unicode="b" horiz-adv-x="264" 
d="M194 258c0 6.66699 2.66699 10 8 10c4.66699 0 7 -3.33301 7 -10h-15zM78 196l3.00098 5.00195c0.666992 2 1 3.33301 1 4c3.33301 4 11.333 16.333 24 37c9.33301 15.333 19 26.666 29 33.999c19.333 37.333 50.333 53.666 93 48.999
c25.333 -10.667 38.666 -34.334 39.999 -71.001c2 -56 -15.667 -110.333 -53 -163c-20.667 -38.667 -61.334 -70.667 -122.001 -96c-16 -6.66699 -32.667 -10 -50 -10c-36.667 0 -57.667 19 -63 57c10.667 -2.66699 21.334 -8.66699 32.001 -18
c6.66699 -6 13.667 -8.66699 21 -8c39.333 2.66699 75.166 17 107.499 43s55.833 58 70.5 96c16 40.667 24 69.667 24 87c0 11.333 -2 21.666 -6 30.999c-3.33301 2 -5.66602 6.33301 -6.99902 13c1.33301 0.666992 1.33301 1 0 1c-4 2 -8 3 -12 3
c-6.66699 0 -14 -2.66699 -22 -8c-16.667 -11.333 -31 -27.666 -43 -48.999c-20.667 -27.333 -37.667 -53 -51 -77l1 -1l-4 -11c-2.66699 0.666992 -4.33398 0.333984 -5.00098 -0.999023l-1 -3c-2 -5.33301 -4.33301 -8.66602 -7 -9.99902c-4 -8 -12 -19.667 -24 -35
c-0.666992 -2 -6.66699 -8 -18 -18c-10 -1.33301 -16.667 0.666992 -20 6s-4.66602 13 -3.99902 23c0 2 0.333008 4 1 6v5c54.667 146.667 91.667 262.667 111 348c5.33301 4 11 6 17 6c7.33301 0 13 -3.66699 17 -11c1.33301 -8 -0.5 -20 -5.5 -36s-7.5 -27.333 -7.5 -34
c-3.33301 -10.667 -9 -25.334 -17 -44.001l-18 -60c-7.33301 -19.333 -18 -49.333 -32 -90z" />
    <glyph glyph-name="c" unicode="c" horiz-adv-x="216" 
d="M211 41c-4 -4 -11.667 -10.666 -23 -19.999c-25.333 -21.333 -54.666 -32 -87.999 -32c-17.333 0 -34 3.66699 -50 11c-26 16.667 -39 49 -39 97c22 107.333 61.667 177 119 209c22.667 -4 37 -15.667 43 -35c1.33301 -4 0.666016 -8 -2.00098 -12
s-6.33398 -6 -11.001 -6c-2 0 -4.5 1.16699 -7.5 3.5s-5.83301 3.5 -8.5 3.5c-1.33301 0 -3 -0.333008 -5 -1c-2.66699 -2.66699 -11 -10.334 -25 -23.001c-10 -9.33301 -16.333 -18.333 -19 -27c-7.33301 -9.33301 -15.666 -26.333 -24.999 -51
c-9.33301 -12.667 -15 -28.667 -17 -48v-51c6.66699 -22.667 20.667 -34 42 -34c17.333 0 54.333 14.667 111 44l1 1c4 4 10.333 4.66699 19 2c0 -12.667 -5 -23 -15 -31z" />
    <glyph glyph-name="d" unicode="d" horiz-adv-x="303" 
d="M168 67l-49.002 -66.002c-21.333 -24 -43.666 -36 -66.999 -36c-10 0 -20.333 2 -31 6c-16 14 -24 32.667 -24 56c0 15.333 2.33301 32.333 7 51c2.66699 20 12.334 58.333 29.001 115c3.33301 12 12 29.333 26 52l25 41c12.667 20 28 30 46 30
c10.667 0 25 -11.333 43 -34c0.666992 -5.33301 3 -10.666 7 -15.999c5.33301 32 17 78.667 35 140c0 4.66699 6 23.334 18 56.001c4 7.33301 9.66699 11 17 11c12 0 20.333 -6 25 -18c2 -58 -7 -125 -27 -201c-5.33301 -19.333 -16 -44.666 -32 -75.999
c-9.33301 -18 -14 -38.667 -14 -62c0 -24 4.66699 -45.667 14 -65c6.66699 -8 14 -12 22 -12c4 0 8 1.33301 12 4c9.33301 3.33301 19 10.333 29 21l23 27c4.66699 5.33301 14 11.666 28 18.999c1.33301 -6 2 -11.333 2 -16c-1.33301 -4.66699 -6 -16.667 -14 -36
c-20 -20.667 -32 -32.667 -36 -36c-15.333 -12.667 -30.333 -19 -45 -19c-6.66699 0 -13.667 1.33301 -21 4c-20.667 12 -36.667 32 -48 60zM166.998 187.998c-1.33301 5.33301 0.333008 18.001 5 38.001c-10 3.33301 -18.667 10.666 -26 21.999l-5 8
c-3.33301 6 -7.33301 10.333 -12 13c-20 -22 -39.333 -53 -58 -93l-1 -10c-8 -9.33301 -16 -32.666 -24 -69.999c-4.66699 -37.333 -7 -59 -7 -65c0 -8.66699 1 -17 3 -25c0.666992 -3.33301 5 -5 13 -5c36.667 17.333 71.667 58.333 105 123c-0.666992 6 1.33301 21 6 45
c0.666992 3.33301 1 9.66602 1 18.999z" />
    <glyph glyph-name="e" unicode="e" horiz-adv-x="234" 
d="M224 50l-3.00195 -2.99805c-3.33301 -2 -4.66602 -5.33301 -3.99902 -10c-53.333 -40 -96 -61.333 -128 -64c-18 -0.666992 -35.667 2.66602 -53 9.99902c-14.667 8 -24.667 18.667 -30 32c-4.66699 10.667 -8 28.334 -10 53.001
c20.667 105.333 70.667 187.666 150 246.999c2.66699 0.666992 10.334 2 23.001 4c10.667 2 19.5 0 26.5 -6s10.5 -14.333 10.5 -25c-1.33301 -8.66699 -2.33301 -17 -3 -25c-11.333 -38.667 -50 -83.334 -116 -134.001c-4 -3.33301 -15 -6.66602 -33 -9.99902
c-10.667 -2 -15.667 -8 -15 -18c-8.66699 -14.667 -12.334 -28.334 -11.001 -41.001c0 -5.33301 2.66699 -15.333 8 -30c11.333 -16 29.666 -24 54.999 -24l4 3c10.667 0 25.334 3.66699 44.001 11c18.667 11.333 48.334 27.333 89.001 48c0.666992 -2.66699 1 -5 1 -7
c0 -4 -1.66699 -7.66699 -5 -11zM165.998 268.002c-2 2 -4.33301 4 -7 6c-35.333 -22 -66 -58.667 -92 -110c3.33301 0 7 1.33301 11 4l50 46c19.333 20.667 32 38.667 38 54z" />
    <glyph glyph-name="f" unicode="f" horiz-adv-x="173" 
d="M217 532c2 -4.66699 4.66406 -9.00195 7.99707 -13.002c1.33301 -3.33301 0.666016 -9 -2.00098 -17c-2 0 -3.33301 -0.333008 -4 -1v-9c-4 -2 -6.66699 -5 -8 -9v-5c-1.33301 -10 -5.66602 -16.667 -12.999 -20c-8 -2.66699 -15 0 -21 8l-2 3
c-0.666992 1.33301 -2.66699 3 -6 5c6 18.667 13.333 46 22 82l-2 10c-1.33301 -0.666992 -5.66602 -6.33398 -12.999 -17.001c0.666992 -12 -3 -18.333 -11 -19c-30 -65.333 -54.667 -124.666 -74 -177.999l-2 -12c6.66699 -0.666992 16 0.666016 28 3.99902s20.333 5 25 5
c10.667 0.666992 21.334 -2.33301 32.001 -9v-5c0.666992 -1.33301 1 -2.33301 1 -3l1 -4c0.666992 -1.33301 1 -4 1 -8c-24 -3.33301 -58.667 -12.666 -104 -27.999l-42 -165l-24 -83c-12.667 -45.333 -19 -72 -19 -80c-4 -6 -5.66699 -14.667 -5 -26
c6.66699 -4 10.334 -9.66699 11.001 -17c0 -2.66699 -1.33301 -10.334 -4 -23.001c-1.33301 -0.666992 -3.33301 -4.16699 -6 -10.5s-7 -10.5 -13 -12.5c-12 2.66699 -22 14.334 -30 35.001c-0.666992 10 0.666016 25.333 3.99902 46c1.33301 6 8.33301 31.667 21 77l18 69
c0.666992 2.66699 5.83398 22.334 15.501 59.001s14.834 57.334 15.501 62.001c0.666992 7.33301 2.66699 12.333 6 15l9 46c-2.66699 0.666992 -7.33398 0.166992 -14.001 -1.5s-11 -2.5 -13 -2.5c-10 -0.666992 -16.333 5 -19 17l-1 21
c4.66699 2.66699 10.334 4.16699 17.001 4.5s17 1 31 2s20.333 8.5 19 22.5c2.66699 6 17 44.667 43 116c17.333 48 33.666 86 48.999 114c12.667 12.667 24.667 24 36 34c6 6 12.667 9 20 9c10 0.666992 19 -5.33301 27 -18c2.66699 -10.667 4 -20.667 4 -30
c0 -16 -4 -29.333 -12 -40z" />
    <glyph glyph-name="g" unicode="g" horiz-adv-x="213" 
d="M143 308c26 3.33301 43 -2.66602 51 -17.999c4.66699 -10 7 -29 7 -57v-48c-4.66699 -4 -7.66699 -9 -9 -15c-3.33301 -7.33301 -7.33301 -17.666 -12 -30.999l-3 -8c0 -1.33301 -0.666992 -4 -2 -8c-14 -30 -24.333 -60.667 -31 -92c-6.66699 -12 -11 -26.667 -13 -44
c-4 -2 -6.16699 -6.33301 -6.5 -13s-1.16602 -11 -2.49902 -13c-23.333 -84.667 -38.666 -136.667 -45.999 -156c-38 -102 -82 -153 -132 -153c-5.33301 0 -10.666 1 -15.999 3l-23 23c35.333 -2.66699 58.666 7.66602 69.999 30.999c14 12.667 25.333 28 34 46
c37.333 77.333 63.333 156 78 236c-14.667 -8 -33.667 -8.33301 -57 -1c-30 18.667 -47.667 39.667 -53 63c-4.66699 20 -7 37.333 -7 52c0 15.333 2.33301 29 7 41c25.333 63.333 52.666 107.333 81.999 132c15.333 9.33301 32.666 16.666 51.999 21.999zM163 262.001
l-1.99707 2c0 4 -1.33301 6 -4 6c-2 -0.666992 -18 -6.66699 -48 -18c-22 -8 -33.667 -15 -35 -21c-14.667 -9.33301 -31 -34 -49 -74c-9.33301 -20 -14 -38.333 -14 -55c0 -10.667 2 -23.334 6 -38.001c3.33301 -12 14.666 -26.333 33.999 -43c14 -4 28.667 4.66699 44 26
c13.333 18.667 22.666 40.334 27.999 65.001c1.33301 14.667 7.66602 32.667 18.999 54l14 25c0 3.33301 -4.33301 7 -13 11c13.333 6 20 14.667 20 26v34z" />
    <glyph glyph-name="h" unicode="h" horiz-adv-x="273" 
d="M15 88l96.001 122.003c38 47.333 76 82.333 114 105c9.33301 5.33301 21.333 5.33301 36 0c6 -4.66699 10.333 -11.667 13 -21c2.66699 -11.333 5 -18.333 7 -21c-4 -10 -7 -23.333 -9 -40c-2.66699 -21.333 -4.66699 -35 -6 -41l-26 -109
c-8.66699 -41.333 -14.334 -78 -17.001 -110c-20.667 14.667 -31 33 -31 55c0 8 1 18.333 3 31c2.66699 16 4.33398 26.333 5.00098 31c1.33301 14 8.66602 44.333 21.999 91c10.667 37.333 15 67.666 13 90.999c-4.66699 2 -15 -4.33301 -31 -19
c-28 -25.333 -57.667 -59 -89 -101l-81 -109c-6 -4.66699 -12.667 -12.334 -20 -23.001c-8.66699 -12.667 -15 -21 -19 -25c-10 -4.66699 -17.667 -6 -23 -4c-6 11.333 -9 23.333 -9 36c0 11.333 3.33301 27.333 10 48s10.334 36 11.001 46l108 327
c-1.33301 8.66699 2 17.334 10 26.001c-0.666992 7.33301 1.5 14.166 6.5 20.499s11.167 9.5 18.5 9.5c6.66699 0 13 -4 19 -12c2 -21.333 -2.33301 -42.333 -13 -63c-16.667 -32.667 -27.334 -60.334 -32.001 -83.001c-2.66699 0 -3.66699 -2 -3 -6
c-16 -43.333 -31.333 -87.333 -46 -132z" />
    <glyph glyph-name="i" unicode="i" horiz-adv-x="152" 
d="M129 395l-3.00098 -2.00293c-1.33301 -1.33301 -2.66602 -4.66602 -3.99902 -9.99902c-32 -2.66699 -49 5 -51 23c0 10.667 3.66699 17.334 11 20.001c2.66699 0.666992 10.667 0.666992 24 0c3.33301 0 7.66602 1 12.999 3c5.33301 -2 11 -8 17 -18
c0.666992 -5.33301 -1.66602 -10.666 -6.99902 -15.999zM112.999 40.9971c-6 -10 -15.999 -24.333 -29.999 -43c-26 -16 -45 -23.667 -57 -23s-25.333 10.667 -40 30c-1.33301 12 -2 24 -2 36c0 70 10.333 139 31 207c3.33301 10.667 12.333 32.667 27 66
c4 4.66699 9.33301 7 16 7s13 -2.33301 19 -7s9 -10 9 -16c0 -3.33301 -1 -6.33301 -3 -9c-12 -19.333 -23.333 -44.666 -34 -75.999l-22 -104c-4.66699 -22 -5.66699 -49.667 -3 -83c1.33301 -4 4.66602 -9.33301 9.99902 -16c2.66699 -0.666992 6.66699 1.5 12 6.5
s9 7.83301 11 8.5c8 5.33301 19 15.666 33 30.999s26.333 25.333 37 30l23 27c-12 -40 -24.333 -64 -37 -72z" />
    <glyph glyph-name="j" unicode="j" horiz-adv-x="165" 
d="M164 503c-9.33301 -10 -15.333 -22.667 -18 -38c-2 4 -7.66699 9.66699 -17 17c-7.33301 2.66699 -11 8 -11 16c0.666992 1.33301 1 8.33301 1 21c0 8.66699 3.66699 15 11 19c9.33301 4.66699 19 2 29 -8l4 -4c2 -2.66699 5.33301 -5.66699 10 -9
c-2 -5.33301 -5 -10 -9 -14zM86 324l2 2.99902c11.333 0.666992 21.666 -3.66602 30.999 -12.999c2 -6.66699 2 -17.334 0 -32.001c-1.33301 -9.33301 3 -20.333 13 -33c-7.33301 0.666992 -12 1 -14 1c-2.66699 -0.666992 -3.66699 -2.66699 -3 -6
c-10.667 -71.333 -27 -149 -49 -233l-48 -179c1.33301 -6 0.333008 -12.333 -3 -19c-3.33301 -9.33301 -5.33301 -15.333 -6 -18c0 -4.66699 -1.66699 -12 -5 -22s-4.66602 -17.667 -3.99902 -23l-17 -35.5c-6 -12.333 -13.333 -22.166 -22 -29.499
c-13.333 2.66699 -19.333 9.66699 -18 21l19 54c18 64.667 41.667 160.667 71 288l28 151.5c9.33301 50.333 14.333 88.833 15 115.5c-2.66699 6.66699 0.333008 10 9 10h1v-1z" />
    <glyph glyph-name="k" unicode="k" horiz-adv-x="255" 
d="M99 155l4.00098 0.00683594c1.33301 -9.33301 -0.333984 -15.333 -5.00098 -18l-2 -1c-0.666992 -23.333 10.333 -47.333 33 -72c11.333 -8.66699 29.333 -19.334 54 -32.001c4.66699 -10.667 18.667 -21.667 42 -33c4.66699 0 7.66699 -0.333008 9 -1l3 -1h6
c0.666992 -8 -4.66602 -15 -15.999 -21c-76 18 -130 56.333 -162 115c-0.666992 4.66699 -2.33398 11.667 -5.00098 21c-5.33301 -20 -13.666 -49.667 -24.999 -89c-2.66699 -3.33301 -4 -8 -4 -14c0 -2.66699 0.333008 -6.83398 1 -12.501s1 -10.167 1 -13.5
c0 -16 -10 -24.333 -30 -25c-6 9.33301 -9 19.666 -9 30.999c0 7.33301 2.33301 21.666 7 42.999l73 267c30 109.333 50.667 192.666 62 249.999c4.66699 3.33301 10.334 5 17.001 5c11.333 0 17.666 -5 18.999 -15c0 -8.66699 -5 -26.667 -15 -54
c0.666992 -6 -1.33301 -14.333 -6 -25s-7 -18.834 -7 -24.501s-1.83301 -14.167 -5.5 -25.5s-5.5 -20 -5.5 -26c0 -3.33301 0.333008 -7 1 -11c-4 -4.66699 -7.33301 -12.334 -10 -23.001c-4 -14.667 -6.66699 -23.334 -8 -26.001c-1.33301 -10.667 -5.5 -26.5 -12.5 -47.5
s-11.167 -37.167 -12.5 -48.5c14 8.66699 32.333 24 55 46c6 -1.33301 10 0 12 4c4 9.33301 10.333 12 19 8c33.333 7.33301 49 11 47 11c5.33301 0 10.666 -0.666992 15.999 -2c5.33301 -5.33301 8 -11 8 -17c0 -2.66699 -0.666992 -5.66699 -2 -9
c-60 -11.333 -105.333 -38.666 -136 -81.999z" />
    <glyph glyph-name="l" unicode="l" horiz-adv-x="145" 
d="M177 544c-7.33301 -8 -10.0029 -15.667 -8.00293 -23c-9.33301 -11.333 -17 -29.333 -23 -54c-6.66699 -27.333 -13 -46 -19 -56l-22 -72c2 -4.66699 1 -9 -3 -13c-0.666992 -2.66699 -7.66699 -27.667 -21 -75c-8.66699 -28.667 -14 -53.667 -16 -75
c-4 -5.33301 -6.5 -14.5 -7.5 -27.5s-3.5 -21.833 -7.5 -26.5c-6.66699 -41.333 -8.66699 -67.666 -6 -78.999c-2 -7.33301 -0.333008 -18 5 -32c6.66699 0.666992 14 4.33398 22 11.001c10.667 8.66699 17.334 13.667 20.001 15c7.33301 4 17.333 5.33301 30 4
c-12 -22 -27 -41 -45 -57c-4 0 -9.16699 -1.33301 -15.5 -4s-10.833 -4 -13.5 -4c-4 0 -8.66699 1.66699 -14 5c-13.333 12 -20.666 19 -21.999 21c-5.33301 9.33301 -8 24 -8 44c0 9.33301 0.333008 20.333 1 33c1.33301 2.66699 3.66602 13.667 6.99902 33
c8 46.667 15.667 86 23 118c14 65.333 31.333 134 52 206c5.33301 19.333 13.333 40.666 24 63.999c12.667 29.333 19.334 44.666 20.001 45.999c2.66699 8 9 18.667 19 32c6 7.33301 12.667 11 20 11c6.66699 0 13.334 -4 20.001 -12c2 -10.667 -2 -21.667 -12 -33z" />
    <glyph glyph-name="m" unicode="m" horiz-adv-x="526" 
d="M73 295c8 -12 12 -28.001 12 -48.001c0 -22.667 -6 -47 -18 -73c0 -8.66699 -2.16699 -22.5 -6.5 -41.5s-5.83301 -33.5 -4.5 -43.5l96 113c35.333 41.333 71 74 107 98c19.333 -7.33301 29 -23.666 29 -48.999c0 -4.66699 -0.666992 -15 -2 -31
c-1.33301 -12.667 -1.66602 -22.667 -0.999023 -30c-8 -26.667 -18.667 -68 -32 -124c0.666992 -0.666992 1.66699 -0.666992 3 0c18.667 17.333 41.167 45.666 67.5 84.999s47.166 66 62.499 80l53 48c8 6 23 15.333 45 28c10.667 0 18 -5.66699 22 -17
c2 -24.667 -2.33301 -53 -13 -85c-16.667 -46.667 -25.667 -74 -27 -82c-14 -73.333 -20.333 -123 -19 -149h1c2.66699 0 7 -1.33301 13 -4c-1.33301 -8.66699 -5 -15 -11 -19c-0.666992 0 -7.66699 -2.66699 -21 -8c-16 14 -24 34.667 -24 62c0 8 0.666992 19.5 2 34.5
s2 26.5 2 34.5c4.66699 23.333 13 53.666 25 90.999c14.667 44.667 24 74.667 28 90h-2c-2 -1.33301 -4.33301 -4.33301 -7 -9s-4.66699 -7 -6 -7c-12 -8.66699 -22.333 -18.667 -31 -30c-18 -22.667 -31.667 -39 -41 -49l-83 -103c-17.333 -21.333 -29 -34.333 -35 -39
c-21.333 -18.667 -37.333 -27 -48 -25c-1.33301 4.66699 -1.33301 11 0 19c2 11.333 3 18.333 3 21c0 9.33301 2.33301 31 7 65c2 10.667 7.66699 31.334 17 62.001c2.66699 7.33301 4.33398 15.333 5.00098 24c0 5.33301 -0.333008 12.333 -1 21s-1 14.334 -1 17.001
c0 6 -0.333008 11.667 -1 17c-13.333 -8 -29.333 -24.667 -48 -50c-20.667 -27.333 -36.334 -45.333 -47.001 -54c-13.333 -19.333 -34.333 -42.666 -63 -69.999c-25.333 -23.333 -43 -45 -53 -65c-0.666992 1.33301 -3.16699 0 -7.5 -4s-6.83301 -6 -7.5 -6
c-1.33301 0.666992 -3 1 -5 1c-4.66699 -0.666992 -8 -1 -10 -1c-5.33301 0 -10.333 1.66699 -15 5c3.33301 31.333 13.333 72.666 30 123.999c18 56 28 97.333 30 124c-1.33301 16.667 -5 32.667 -11 48c11.333 10 25.333 11.333 42 4z" />
    <glyph glyph-name="n" unicode="n" horiz-adv-x="293" 
d="M260 190c-4.66699 -22 -9.00586 -43.665 -13.0059 -64.998c-5.33301 -27.333 -8 -49 -8 -65c0 -29.333 7.66699 -55 23 -77c-6.66699 -2 -12.667 -3 -18 -3c-9.33301 0 -17.666 3 -24.999 9c-12.667 22 -19 48.333 -19 79c0 19.333 3 43.666 9 72.999l14 70l-1 2
c-25.333 -19.333 -54 -53 -86 -101c-34 -50.667 -61 -85.334 -81 -104.001c-9.33301 -4 -17.666 -6 -24.999 -6c-4 0 -8 0.666992 -12 2c-11.333 8.66699 -14.333 23.334 -9 44.001c7.33301 28.667 17.666 66.667 30.999 114c12 44 20 82.667 24 116
c4.66699 6 10.334 9 17.001 9s12.834 -3.66699 18.501 -11s7.83398 -14.333 6.50098 -21l-43 -177c2.66699 7.33301 9.33398 16.666 20.001 27.999c34 47.333 56 77 66 89c26.667 31.333 54.334 56 83.001 74c22 0 33 -11.667 33 -35c0 -4.66699 -0.833008 -12 -2.5 -22
s-2.5 -17.333 -2.5 -22z" />
    <glyph glyph-name="o" unicode="o" horiz-adv-x="246" 
d="M214 98c-5.33301 -2.66699 -9.66699 -8.00391 -13 -16.0039c-4.66699 -11.333 -7.66699 -17.666 -9 -18.999c-8 -10.667 -22.667 -25.667 -44 -45c-20 -28.667 -49.333 -45 -88 -49c-10.667 -0.666992 -21.334 0 -32.001 2c-26 12.667 -42.667 37.334 -50 74.001
c2 21.333 7.66699 44.333 17 69l26 65c5.33301 6 12.333 16.667 21 32c8.66699 13.333 17.667 22.666 27 27.999c8.66699 14.667 22.334 24 41.001 28c6.66699 -1.33301 17.667 5.33398 33 20.001c-0.666992 2.66699 1 6.66699 5 12c7.33301 0.666992 14 1 20 1
c10 0 18 -1 24 -3c27.333 -19.333 41 -51.666 41 -96.999c0 -11.333 -0.833008 -23.166 -2.5 -35.499s-7.16699 -34.5 -16.5 -66.5zM176.999 270.996l-44.002 -16.002l10 -12c0.666992 -7.33301 1.33398 -18 2.00098 -32c0 -12 -3.66699 -21.667 -11 -29
c-3.33301 -2 -6.66602 -3.33301 -9.99902 -4c-9.33301 -0.666992 -15.333 10.333 -18 33c-6 -2.66699 -13.667 -9.66699 -23 -21c-11.333 -13.333 -19.333 -21.666 -24 -24.999c-18.667 -40 -28.667 -63.333 -30 -70c-6 -17.333 -9 -34 -9 -50c0 -8 0.666992 -16 2 -24
c4.66699 -6.66699 14.667 -10.667 30 -12c76 22 126.333 82.667 151 182c-2 18.667 -4 35.334 -6 50.001s-8.66699 24.667 -20 30z" />
    <glyph glyph-name="p" unicode="p" horiz-adv-x="326" 
d="M82 25c76.667 28.667 137.329 75.9941 181.996 141.994c0.666992 3.33301 3.66699 10.333 9 21s8 19.334 8 26.001c0 22.667 -15 38.334 -45 47.001c-19.333 3.33301 -38.333 6.33301 -57 9c-3.33301 -2 -19.666 -8 -48.999 -18c-20 -7.33301 -34 -16.333 -42 -27
c-1.33301 -3.33301 -7.66602 -10.666 -18.999 -21.999c-0.666992 -1.33301 -5 -8 -13 -20c-5.33301 33.333 -7.66602 53 -6.99902 59c24.667 36.667 65 61.334 121 74.001c47.333 2 90 -10 128 -36c20 -28 30 -51.667 30 -71c0 -11.333 -3 -22.333 -9 -33
c-5.33301 0 -8.33301 -2.33301 -9 -7s-1.66699 -9.16699 -3 -13.5s-4.66602 -7.16602 -9.99902 -8.49902c-23.333 -30.667 -52.333 -60.334 -87 -89.001c-39.333 -31.333 -75 -51.666 -107 -60.999c-13.333 -4 -22 -7.33301 -26 -10c-8 -5.33301 -11.333 -14 -10 -26
c-6 -28.667 -16.667 -71.667 -32 -129c-4 -4 -7 -14.667 -9 -32c-8.66699 -32.667 -24.667 -84 -48 -154c-1.33301 0.666992 -8 1 -20 1c-6.66699 -0.666992 -11.334 3 -14.001 11c-0.666992 12 3 28.5 11 49.5s12 36.833 12 47.5c0 4 -0.333008 8 -1 12
c6 8.66699 11.333 23 16 43c5.33301 22.667 10 37.667 14 45l24 81c8 29.333 11 57.666 9 84.999c6.66699 2.66699 11.334 8.66699 14.001 18c1.33301 7.33301 3 15 5 23c-0.666992 11.333 1.33301 24.333 6 39c5.33301 18 8.33301 30 9 36c0 1.33301 1 13 3 35
c1.33301 14.667 6 24.334 14 29.001c6.66699 4 17 2 31 -6c2.66699 -1.33301 6.66699 -2.66602 12 -3.99902c-2 -5.33301 -5.66699 -20 -11 -44c-3.33301 -20 -8 -33.333 -14 -40c0 -14 -4.33301 -33.667 -13 -59c0.666992 -4 -0.333008 -11.667 -3 -23z" />
    <glyph glyph-name="q" unicode="q" horiz-adv-x="282" 
d="M215 58c-17.333 -18.667 -28.665 -31.6699 -33.998 -39.0029c-11.333 -15.333 -19 -30.333 -23 -45c-12.667 -24 -26.334 -60 -41.001 -108c20 -2 38.333 -4 55 -6l18 -2c6 -0.666992 8.33301 -6 7 -16c-20.667 -10 -51.334 -15 -92.001 -15
c-15.333 -34 -30 -90 -44 -168c-0.666992 -2.66699 -2 -9.5 -4 -20.5s-9.66699 -15.167 -23 -12.5c-2 10.667 -3 21.334 -3 32.001c0 18.667 3 40.334 9 65.001l16 66c3.33301 6 6.33301 18.667 9 38c-13.333 -1.33301 -30 -2 -50 -2s-43.333 0.666992 -70 2
c-8 8.66699 -12 16.334 -12 23.001c0 3.33301 1.33301 6.66602 4 9.99902c8 9.33301 18.333 13 31 11c12.667 -4 30 -6 52 -6c26 0.666992 43.333 0.333984 52 -0.999023l8 3l44 130l-53 -17c-7.33301 -1.33301 -14.333 -2 -21 -2c-24.667 0 -46.334 9.33301 -65.001 28
c-8.66699 15.333 -13 32 -13 50c0 16.667 3.66699 31.667 11 45c54.667 100.667 119.334 159.667 194.001 177l29 -2c27.333 -2 42 -24 44 -66c12.667 -4 19 -13.333 19 -28c-10 -54.667 -28 -96 -54 -124zM193.001 232.997c-26.667 -4 -56.665 -16.6689 -89.998 -38.002
c-26 -17.333 -52.667 -51.666 -80 -102.999c-8 -15.333 -12 -29 -12 -41c0 -11.333 3.66699 -20.666 11 -27.999c8.66699 -3.33301 18 -5 28 -5c23.333 0 57.666 12.333 102.999 37c3.33301 6.66699 15.333 25.334 36 56.001c15.333 22 23 52 23 90
c0 5.33301 -0.666992 10.666 -2 15.999c1.33301 8 -4.33398 13.333 -17.001 16z" />
    <glyph glyph-name="r" unicode="r" horiz-adv-x="241" 
d="M83 216c21.333 28 43.6689 54.165 67.002 78.498s49 37.833 77 40.5c12.667 1.33301 24.334 -0.666992 35.001 -6c7.33301 -10 11.666 -20.667 12.999 -32c0 -6 -2.66699 -24.333 -8 -55l-14 -2c-2 4 -4 17.333 -6 40c-1.33301 12.667 -4.33301 21 -9 25
c-32.667 -10 -62.667 -30.667 -90 -62l-37 -40c-14 -16 -23.333 -31.333 -28 -46c-4.66699 -0.666992 -9 -9.33398 -13 -26.001c-3.33301 -12 -6.33301 -19.667 -9 -23c-6 -10.667 -15 -33 -27 -67c0.666992 -5.33301 0.666992 -16.333 0 -33
c-2.66699 -14 -9.33398 -22.667 -20.001 -26c-2.66699 4.66699 -5.33398 6 -8.00098 4c-3.33301 -3.33301 -6.33301 -5 -9 -5c-5.33301 0 -10 4.33301 -14 13c10.667 38.667 34 128.334 70 269.001c-2.66699 6 -4 11 -4 15c0 7.33301 4.66699 12 14 14
c22 4 33.667 -0.333008 35 -13c0 -1.33301 -1 -5.16602 -3 -11.499s-2.66699 -14.5 -2 -24.5c-4 -0.666992 -6.33301 -1.66699 -7 -3c0 -1.33301 0.333008 -4.66602 1 -9.99902l-3 -9c0 -2 -0.333008 -3.66699 -1 -5z" />
    <glyph glyph-name="s" unicode="s" horiz-adv-x="223" 
d="M43 170c3.33301 -0.666992 4.66797 -1.00195 4.00098 -1.00195c-0.666992 -0.666992 -1.33398 -1 -2.00098 -1l11 -3c-0.666992 -3.33301 1 -5.66602 5 -6.99902c0.666992 0 2 -0.666992 4 -2c1.33301 0.666992 3 1 5 1h7c3.33301 -6 12.166 -11.333 26.499 -16
s23.5 -9.33398 27.5 -14.001c29.333 -14.667 46.333 -32.334 51 -53.001c0 -14 -6.66699 -29 -20 -45c-2.66699 0 -5 -1.66699 -7 -5s-3.66699 -5.66602 -5 -6.99902c-39.333 -26.667 -75 -39 -107 -37c-20 1.33301 -37.667 7.66602 -53 18.999c-5.33301 21.333 -8 30 -8 26
c0 6.66699 4.33301 13 13 19c2 -4 8 -13.333 18 -28c4.66699 -7.33301 11.334 -10 20.001 -8c32.667 8 53.334 14 62.001 18c24 10 40 23.667 48 41c-2 16 -24 32.667 -66 50c-13.333 5.33301 -30 13 -50 23c-16.667 11.333 -24.667 26.666 -24 45.999
c6.66699 9.33301 17.667 20 33 32c20 14.667 32.333 24.334 37 29.001c9.33301 6.66699 24 14.334 44 23.001c9.33301 5.33301 32.333 15 69 29c12 -2.66699 18.333 -4 19 -4c7.33301 -2.66699 11.333 -7.33398 12 -14.001c0 -5.33301 -4.33301 -10.333 -13 -15
c-4.66699 -1.33301 -11.5 -4.16602 -20.5 -8.49902s-15.833 -7.16602 -20.5 -8.49902c-2 0 -17 -6.66699 -45 -20c-32.667 -16 -56.334 -32.333 -71.001 -49c0 -1.33301 -1.66699 -4.66602 -5 -9.99902h1z" />
    <glyph glyph-name="t" unicode="t" horiz-adv-x="252" 
d="M174 302c14 -2 28 -3.66895 42 -5.00195c16 -3.33301 29 -9.66602 39 -18.999l1 -19c-10.667 -0.666992 -29.667 0 -57 2c-16.667 1.33301 -31 0 -43 -4c-43.333 -83.333 -64 -153 -62 -209c0 -8 1.16699 -15.5 3.5 -22.5s9.16602 -10.5 20.499 -10.5
c6.66699 0 14.667 1.33301 24 4c7.33301 0.666992 19.166 6 35.499 16s31.833 15.333 46.5 16c-12 -36 -42.667 -60.333 -92 -73c-6 -1.33301 -11.333 -2 -16 -2c-18 0 -32 5.66699 -42 17c-12 19.333 -18.333 42.333 -19 69c-1.33301 36.667 8 80.334 28 131.001
c6.66699 12 14.334 31 23.001 57c-23.333 -0.666992 -43.333 -11.667 -60 -33c-12 -0.666992 -21.333 10 -28 32c1.33301 7.33301 9.33301 15.333 24 24c10 8.66699 23.333 14.667 40 18c14.667 2 29.334 4.33301 44.001 7c31.333 61.333 53 119.333 65 174
c4.66699 6.66699 9.66699 10 15 10c8.66699 0.666992 17 -5.66602 25 -18.999c-2 -46 -20 -99 -54 -159c-1.33301 -0.666992 -2.33301 -1.33398 -3 -2.00098z" />
    <glyph glyph-name="u" unicode="u" horiz-adv-x="312" 
d="M295 50c-8.66699 -7.33301 -18.9951 -17.0068 -30.9951 -29.0068c-17.333 -10 -32 -15 -44 -15c-18 0 -30.333 11.667 -37 35c-1.33301 2 -2.66602 6.33301 -3.99902 13c-2.66699 10.667 -5.33398 16 -8.00098 16c-0.666992 0 -20.334 -21 -59.001 -63
c-24.667 -22 -56.334 -35.667 -95.001 -41c-18.667 21.333 -28 46.333 -28 75c0 12.667 2 29.334 6 50.001c4 24 6.33301 40.667 7 50c10 50 28.667 98.667 56 146c7.33301 1.33301 15.333 -1 24 -7c2 -5.33301 3 -10 3 -14c0 -5.33301 -2.66699 -12.666 -8 -21.999
c-6.66699 -12 -10.334 -19.333 -11.001 -22c-10.667 -31.333 -23.334 -74.666 -38.001 -129.999c-1.33301 -16.667 -2 -31 -2 -43c0 -19.333 1.66699 -33 5 -41c17.333 2.66699 31 7.33398 41 14.001c0.666992 0.666992 11.667 9.33398 33 26.001
c4.66699 9.33301 21.334 32.333 50.001 69c21.333 27.333 33.666 52 36.999 74c18 43.333 35.333 78 52 104c11.333 7.33301 19 5.33301 23 -6c2 -6 3 -11.667 3 -17c0 -10 -3.66699 -22.667 -11 -38c-8 -17.333 -12.667 -29.666 -14 -36.999c-18.667 -24 -30 -59 -34 -105
c0.666992 -3.33301 1.66699 -12.333 3 -27c1.33301 -11.333 5 -18 11 -20c9.33301 2 17.666 5.33301 24.999 10c11.333 8 18.333 12.667 21 14c8 8 19.667 18.667 35 32l12 -8c-4 -19.333 -11.667 -33.666 -23 -42.999z" />
    <glyph glyph-name="v" unicode="v" horiz-adv-x="305" 
d="M324 296l19 -4.00195c-4 -10 -9.33301 -17 -16 -21l-39 -28c-6.66699 -4.66699 -22.667 -7.33398 -48 -8.00098l-9 3c-4 1.33301 -7 2 -9 2c-1.33301 -10 -3.66602 -26 -6.99902 -48c-36 -99.333 -79.667 -171 -131 -215c-12 -10 -28 -12.667 -48 -8
c-25.333 16 -38 44.333 -38 85c0 10 0.666992 21.667 2 35c9.33301 46.667 17.666 80.667 24.999 102c0.666992 14.667 4.66699 31.334 12 50.001c10.667 27.333 16.667 43.333 18 48c6 3.33301 11.667 5 17 5c8 0 15 -3.66699 21 -11c-0.666992 -16 -5 -33.333 -13 -52
c-12 -27.333 -18.667 -43.333 -20 -48c-0.666992 -8 -5.33398 -28.667 -14.001 -62c-6 -24 -9 -44.333 -9 -61c0 -27.333 5 -45.666 15 -54.999c8 2.66699 16.333 9 25 19c12.667 14.667 20 23 22 25c31.333 47.333 52 81.333 62 102c18.667 40 28 78 28 114
c0 10 -0.666992 20 -2 30c5.33301 4 10.333 6 15 6s10.834 -3.66699 18.501 -11s12.834 -11.666 15.501 -12.999c9.33301 -2.66699 18.333 -4 27 -4c11.333 0 22.666 3.33301 33.999 10c15.333 8 24.333 12.333 27 13z" />
    <glyph glyph-name="w" unicode="w" horiz-adv-x="485" 
d="M534 327c-4.66699 -8 -9.99902 -17.667 -15.999 -29c-15.333 -18 -44 -62.333 -86 -133c-33.333 -56 -67 -95.333 -101 -118c-8 -2.66699 -15.667 -4 -23 -4c-12 0 -24 3 -36 9l-31 44c-0.666992 8 -4.33398 25.333 -11.001 52c-5.33301 21.333 -7.66602 39 -6.99902 53
c-8.66699 -15.333 -23.334 -37.666 -44.001 -66.999c-3.33301 -10.667 -10.666 -24.667 -21.999 -42s-18.666 -30 -21.999 -38c-10.667 -14.667 -29 -35.334 -55 -62.001h-29c-15.333 0 -23 7.66699 -23 23c-0.666992 41.333 3 92.333 11 153l18 146
c0.666992 7.33301 5.66699 11 15 11c10.667 0 18 -2.66699 22 -8c7.33301 -10 11 -21 11 -33c0 -7.33301 -1.83301 -18.666 -5.5 -33.999s-5.33398 -26.666 -5.00098 -33.999s-2.5 -18.666 -8.5 -33.999c-4 -10 -1.66699 -20 7 -30c-8 -1.33301 -12 -2.66602 -12 -3.99902
v-3c0 -6.66699 -1 -15.334 -3 -26.001c-2.66699 -14.667 -4.33398 -23.667 -5.00098 -27c-2 -18 -2 -32.333 0 -43c10.667 6.66699 21.667 19.334 33 38.001c12.667 21.333 22.334 35 29.001 41c16 33.333 50 90.666 102 171.999c7.33301 5.33301 15.666 8 24.999 8
c3.33301 0 7 -0.333008 11 -1c10 -4.66699 15 -11.334 15 -20.001c0 -2.66699 -0.833008 -7.83398 -2.5 -15.501s-2.16699 -13.5 -1.5 -17.5c-3.33301 -5.33301 -5.5 -14.333 -6.5 -27s-2.83301 -21.334 -5.5 -26.001c2 -41.333 3.33301 -63.666 4 -66.999
c4.66699 -26 15.667 -44.333 33 -55c6 -0.666992 12.667 6 20 20c14 16.667 46.333 62 97 136c38 55.333 72.667 98.666 104 129.999h19c-2.66699 -13.333 -7.66699 -26 -15 -38z" />
    <glyph glyph-name="x" unicode="x" horiz-adv-x="309" 
d="M306 203c-9.33301 -7.33301 -22.333 -19.3291 -39 -35.9961c-10 -4.66699 -21 -13.334 -33 -26.001l-30 -30c8 -16.667 21.167 -34.167 39.5 -52.5l58.5 -61.5c-21.333 -1.33301 -39 4.33398 -53 17.001c-10 7.33301 -24.333 19.666 -43 36.999l-31 33
c-8.66699 -8.66699 -26.667 -22.334 -54 -41.001c-8 -6.66699 -19.667 -17.667 -35 -33c-3.33301 -1.33301 -9.5 -6.5 -18.5 -15.5s-16.167 -13.5 -21.5 -13.5c-6.66699 0 -13.334 3.66699 -20.001 11c0 10 3.33301 18.5 10 25.5s17.334 15.833 32.001 26.5
c2 0.666992 3 3 3 7c22 13.333 51 37.333 87 72c-21.333 51.333 -32 88.333 -32 111c3.33301 13.333 10.333 32.666 21 57.999h22c8 -2 12 -7 12 -15c0 -4.66699 -1.83301 -14 -5.5 -28s-4.83398 -23.667 -3.50098 -29c-1.33301 -4 -2 -8 -2 -12
c0 -5.33301 5.33301 -24.333 16 -57c12.667 9.33301 47.334 40.666 104.001 93.999l31 -7c2 -18 -3 -29.667 -15 -35z" />
    <glyph glyph-name="y" unicode="y" horiz-adv-x="253" 
d="M120 -107c-28 -52.667 -55.998 -99.3359 -83.998 -140.003l-46 -45c-9.33301 -8.66699 -15.5 -13.5 -18.5 -14.5s-13.167 -2.5 -30.5 -4.5c34.667 33.333 68.667 82.333 102 147c29.333 56.667 50.666 109.667 63.999 159c-0.666992 4 -1.66699 8.33301 -3 13
c-2.66699 7.33301 -7.33398 13.333 -14.001 18c-26.667 17.333 -47.667 60.333 -63 129c-1.33301 22.667 -6.33301 63.334 -15 122.001c0 -2 -0.333008 4.33301 -1 19c0 4.66699 1.66699 7 5 7c7.33301 0.666992 14.5 -3.83301 21.5 -13.5s10.833 -18.5 11.5 -26.5
c4.66699 -40 11.334 -80.333 20.001 -121c11.333 -53.333 32.666 -87.333 63.999 -102c18.667 40 46 116.667 82 230c14 7.33301 22 11.333 24 12c4 0 7.66699 -2 11 -6l11 -10c-3.33301 -18 -12 -41.667 -26 -71c-12.667 -25.333 -34 -80.166 -64 -164.499
s-47 -130.166 -51 -137.499z" />
    <glyph glyph-name="z" unicode="z" horiz-adv-x="270" 
d="M42 14h2c2 0 4.33301 -1 7 -3c15.333 -0.666992 42.333 2.33301 81 9c34.667 6 67 6 97 0c-5.33301 -5.33301 -8 -10 -8 -14c-68.667 -13.333 -131.667 -22 -189 -26l-23.5 11c-8.33301 4 -14.5 8.66699 -18.5 14c-1.33301 10 5.33398 20.333 20.001 31
c39.333 18 86 42.667 140 74c14.667 8.66699 39.667 27.667 75 57l8 14c-18 11.333 -40 17 -66 17c-16 0 -45.667 -4.33301 -89 -13c-9.33301 -2 -22 2.33301 -38 13c-2 4 -3 7.66699 -3 11c0 6 4.33301 10 13 12c1.33301 0.666992 3.66602 1.33398 6.99902 2.00098
c2.66699 -0.666992 5.33398 -1 8.00098 -1c4 0 10.167 1.16699 18.5 3.5s14.833 3.16602 19.5 2.49902c26.667 2.66699 47.667 4 63 4c46.667 0 81 -10.333 103 -31c3.33301 -4 5 -9 5 -15s-2 -13.333 -6 -22l-5 -4l-1 -2c-2 -2.66699 -5.66699 -6.33398 -11 -11.001
c-0.666992 -3.33301 -2.66699 -6 -6 -8l-10 -4c-0.666992 -1.33301 -1.33398 -3.33301 -2.00098 -6c-6.66699 -2.66699 -16.834 -9.5 -30.501 -20.5s-24.834 -17.833 -33.501 -20.5c-13.333 -9.33301 -34.666 -21.666 -63.999 -36.999c-5.33301 -5.33301 -16 -12 -32 -20
c-9.33301 -2 -19.666 -7.66699 -30.999 -17z" />
    <glyph glyph-name="braceleft" unicode="{" horiz-adv-x="1062" 
d="M661 692c-5.33301 -3.33301 -9.33301 -6.33301 -12 -9zM694 706h0.999023c0.666992 -0.666992 1.33398 -1 2.00098 -1c-0.666992 0.666992 -1.66699 1 -3 1zM685.999 707c-6 -0.666992 -14.334 -5.66797 -25.001 -15.001l11 8.5
c4.66699 3.66699 9.33398 5.83398 14.001 6.50098zM686.998 706.999h1.5h3.5h1h-4h-2zM614.998 644.999l-6 -7l-4 -7zM575.998 589.999v0v0zM572.998 609.999c0 -1.33301 0.833984 -4 2.50098 -8s2.5 -7 2.5 -9l-3 -3v0l3 3
c-0.666992 -1.33301 -1.33398 -2.33301 -2.00098 -3c2 0 2.66699 1.33301 2 4l10 14c-2.66699 -4 -6 -8.66699 -10 -14c-2 4 -3.66699 9.33301 -5 16zM604.999 630.999l-17 -23l17 21l-4 -4zM613.999 639.999l-9 -11.001c2 2.66699 5 6.33398 9 11.001zM615.999 642.998
c-0.666992 -1.33301 -1.33301 -2.33301 -2 -3zM526 756.998h-2l2 -3c4 2 4 3 0 3zM545 678.998c-3.33301 -1.33301 -3 -2.33301 1 -3zM696 694.998l0.99707 -1c8.66699 -4.66699 12.334 -15.667 11.001 -33c0.666992 8 0.333984 14.333 -0.999023 19
s-4.66602 9.66699 -9.99902 15h-1zM580.997 584.998v-1l1 1h-1zM686.997 698.998h2h-2zM691.997 698.998h-1h1v0zM692.997 706.998h-0.998047c-0.666992 -1.33301 -2 -3.66602 -4 -6.99902l2 -1l6 -4c-0.666992 2 -1.33398 3.33301 -2.00098 4
c1.33301 1.33301 1.66602 3.66602 0.999023 6.99902h-1c0 0.666992 -0.333008 1 -1 1zM707.999 660.998c-0.666992 -4 -1.33301 -9.66699 -2 -17c1.33301 5.33301 2 11 2 17zM552 668.998l-2 5h1c2 0 3 -0.666992 3 -2c0.666992 -1.33301 0 -2.33301 -2 -3zM521 755.998
c0 -0.666992 0.669922 -1.66699 2.00293 -3h-1h1v-1c-0.666992 -2 -1.66699 -4.33301 -3 -7c-15.333 -28.667 -25.666 -49.334 -30.999 -62.001c1.33301 1.33301 4.66602 7.33301 9.99902 18c1.33301 4 6.33301 13 15 27c6.66699 11.333 10 19 10 23
c5.33301 -10 11.333 -26.333 18 -49l7 -27c-1.33301 0 -2.33301 0.333008 -3 1l1 -6c2 -14 7 -34.667 15 -62c1.33301 -1.33301 2.33301 -5.16602 3 -11.499s6 -10.166 16 -11.499c-2 2 -4 3.66699 -6 5c-7.33301 7.33301 -12 16 -14 26
c-2.66699 14.667 -5.33398 24.334 -8.00098 29.001c1.33301 2.66699 1 7 -1 13c-2.66699 8.66699 -4 13.667 -4 15l1 1v-1l2 -6v-1v0v0c6.66699 2 10 3.66699 10 5s-3.66699 2.66602 -11 3.99902v1c-2.66699 16 -8.33398 37.667 -17.001 65
c-0.666992 1.33301 -3 5.66602 -7 12.999v0l-3 -1c-0.666992 1.33301 -1.33398 2.33301 -2.00098 3zM687.003 698.998c-20 -5.33301 -49.667 -37.001 -89 -95.001c-2 -1.33301 -7.33301 -7.66602 -16 -18.999l2 -1l15 22l32 44c19.333 26.667 38 43 56 49zM829.003 599.997
c-35.333 -0.666992 -73 -10.334 -113 -29.001l19 6c12 3.33301 18.333 6 19 8l-15 -5c30 10.667 54.667 16.334 74 17.001h1c1.33301 0 6.33301 1 15 3zM843.003 600.997c-0.666992 0 -1 -0.333984 -1 -1.00098h-2c2.66699 -0.666992 4.5 -2.5 5.5 -5.5
s1.5 -5.83301 1.5 -8.5c0 -3.33301 -1.66699 -7.66602 -5 -12.999c-5.33301 -7.33301 -8 -11.333 -8 -12c0.666992 0 4 4.33301 10 13c4 2.66699 5.33301 8 4 16c-1.33301 7.33301 -3 11 -5 11zM835.003 600.996c-1.33301 0 -3.33301 -0.333008 -6 -1h5h6
c-1.33301 0.666992 -3 1 -5 1zM834.003 560.996l-1.00098 -1.00098c-3.33301 -5.33301 -8 -13.666 -14 -24.999l1 1c0.666992 2.66699 5.33398 11 14.001 25zM319.002 783.995c-4 -15.333 -14.667 -45.333 -32 -90c8 16 16.667 38.333 26 67zM1052 363.995l-12.002 5.00684
c-16 7.33301 -28.667 12.666 -38 15.999c-20.667 7.33301 -45.334 14.666 -74.001 21.999l1 4c3.33301 12 6.66602 22.667 9.99902 32c6.66699 18.667 10 27 10 25c7.33301 12 11 24.333 11 37c0.666992 -0.666992 1 3 1 11c0 6 -6 12.333 -18 19
c-4.66699 0.666992 -11 1.33398 -19 2.00098c-8.66699 0 -18.167 -1 -28.5 -3s-23.166 -5 -38.499 -9c-5.33301 -1.33301 -11 -3 -17 -5c-2.66699 -0.666992 -5.66699 -5 -9 -13c4.66699 6 12 9 22 9c11.333 -0.666992 17.666 -0.666992 18.999 0l44 3l18 -2
c4 -0.666992 6 -3 6 -7c0 -6.66699 -4.66699 -22 -14 -46c-12 -29.333 -18.667 -46 -20 -50l-4 -13c-0.666992 -2 1 -6.33301 5 -13l7 -2c26 -4.66699 55.333 -13.667 88 -27l32 -14c0.666992 0 1.66699 -0.333008 3 -1v-4l1 1l5 -14c-2 1.33301 -3 1.66602 -3 0.999023
c-2.66699 1.33301 -4 3.66602 -4 6.99902v0l1 1l-7 -6c-8 -6.66699 -21.667 -16 -41 -28c7.33301 4 11.666 6.33301 12.999 7v0c0 -0.666992 -27.667 -18.667 -83 -54c1.33301 -10.667 4.5 -18.667 9.5 -24s7.83301 -9 8.5 -11c17.333 -23.333 30.166 -41.833 38.499 -55.5
s18.833 -33.834 31.5 -60.501c-8.66699 4 -20.334 11 -35.001 21c-24 14 -46.667 22.333 -68 25h-8l-5 -1l-12 -21v0c0 0.666992 0.666992 2 2 4v-1c5.33301 -23.333 14.333 -58.333 27 -105c0 -4 2.33301 -15.667 7 -35l-25 11
c-24.667 5.33301 -44.334 6.66602 -59.001 3.99902c-1.33301 1.33301 -8.66602 -1 -21.999 -7l-2 -2c0 -0.666992 -1.33301 -5.66699 -4 -15v0l2 -9c0.666992 -6 2.33398 -15.167 5.00098 -27.5l12 -55.5v-9c-1.33301 0.666992 -3.66602 1.33398 -6.99902 2.00098l-11 4
c1.33301 0 -1 1 -7 3c0.666992 -0.666992 -1.66602 0.333008 -6.99902 3c-8 6.66699 -17.667 10.334 -29 11.001l-17 5c-0.666992 0 -0.833984 0 -0.500977 0s0.166016 0 -0.500977 0c-0.666992 0.666992 -2.66699 1 -6 1l-2 -1l-9 -2c-8 -2 -13.667 -4.33301 -17 -7
c-5.33301 -4 -10.333 -11 -15 -21c-1.33301 -13.333 -2.33301 -31.333 -3 -54h-2l-3 4c0.666992 -0.666992 0.333984 0 -0.999023 2v0l1 -1c-0.666992 1.33301 -2.33398 4 -5.00098 8c-5.33301 6.66699 -16 21.334 -32 44.001l-16 22l-16 20l-18 3v0l-2 -1l-2 -1
c-16.667 -17.333 -36.334 -44.666 -59.001 -81.999l2 -3v0c-1.33301 0 -5.33301 4.83301 -12 14.5s-9.33398 16.167 -8.00098 19.5c-2.66699 13.333 -8 34.333 -16 63c-0.666992 3.33301 -1.66699 7.16602 -3 11.499s-9.33301 8.83301 -24 13.5
c-3.33301 0 -11.666 -2 -24.999 -6c-3.33301 -2 -9 -4.33301 -17 -7c-3.33301 -2.66699 -10.166 -6.66699 -20.499 -12s-22.166 -12.666 -35.499 -21.999l-8 -6c-0.666992 0 -1.66699 -0.666992 -3 -2l-3 -1c-4 0.666992 -8.33301 -1.66602 -13 -6.99902l-3 -3
c2 1.33301 4 2 6 2l-12 -5c-10.667 -8.66699 -20.334 -15.667 -29.001 -21c6 17.333 15.333 38.666 28 63.999l19 37l9 18l1 3c0.666992 1.33301 1.33398 4.33301 2.00098 9v1l-21 14c2 -1.33301 1.33301 -1 -2 1l-13 -4c-34 -13.333 -59 -21.666 -75 -24.999
c-9.33301 -2.66699 -22 -5.33398 -38 -8.00098c-0.666992 0 -3.33398 -0.333008 -8.00098 -1l12 15c2 0 7.33301 8.66699 16 26c0 1.33301 1.66699 3 5 5c8.66699 11.333 20 29.333 34 54l4 10h0.5h0.5c0 0.666992 0.333008 3 1 7v1c-6 6.66699 -12 13 -18 19v0
c0.666992 0 1.66699 -1 3 -3v0l-7 1c-24 2.66699 -51.667 4.33398 -83 5.00098c-9.33301 0 -22.666 0.666992 -39.999 2l-6 1c8 4.66699 24.333 16.667 49 36v0v-1c0 2.66699 0.333008 10.667 1 24v0l-1 1l-4 3l-2 2c-4.66699 3.33301 -9 6 -13 8l-19 10l-38 18
c-25.333 12 -51.666 21.333 -78.999 28c3.33301 1.33301 13.333 4.66602 30 9.99902c30.667 10 58.334 18.333 83.001 25l17 5l8 19l2 4c0 -0.666992 -0.333008 -1 -1 -1l-2 5c-20 32 -43.667 61.333 -71 88c-8.66699 6 -20 15 -34 27v0l40 6
c17.333 0.666992 43.666 2.66699 78.999 6c8 15.333 12 30.333 12 45c0 10.667 -2.83301 24.5 -8.5 41.5s-8.83398 29.5 -9.50098 37.5c-3.33301 12.667 -8.33301 30.334 -15 53.001c-2 5.33301 -4.33301 12.333 -7 21c11.333 -8.66699 28.333 -20 51 -34l27 -20
c2.66699 -2 7.66699 -5 15 -9l3 -2h1v0h-1l-1 1l-14 9l-26 18c-12.667 9.33301 -31 22 -55 38v2h-1l4 -2l71 -47c2.66699 -2 7 -5 13 -9l8 -5h2v0l-1 -2h2c2.66699 0.666992 7 2.66699 13 6l1 4c2.66699 8 5.66699 18.667 9 32c6.66699 18.667 11.334 36.334 14.001 53.001
c0 -0.666992 -0.333008 -1.33398 -1 -2.00098h-1c0.666992 1.33301 1.66699 3.66602 3 6.99902c0.666992 0.666992 1 2 1 4h1h1v0l21 51c2.66699 6 6 14.333 10 25c4 18.667 7.33301 28 10 28c1.33301 0 4.83301 -6.33301 10.5 -19s12.834 -32.667 21.501 -60
c3.33301 -18 9.33301 -44.333 18 -79c2.66699 -10.667 7.33398 -26.667 14.001 -48l7 -15c4 -1.33301 7.33301 -2 10 -2c4 0 6.5 1.66699 7.5 5s2.16699 5.33301 3.5 6l62 109l30 59c1.33301 1.33301 2.5 2.83301 3.5 4.5s2.16699 3.16699 3.5 4.5
c2 1.33301 3.66699 0.666016 5 -2.00098v1c-0.666992 2.66699 -1.66699 3.66699 -3 3l1 2c-4.66699 4.66699 -8 3 -10 -5c-27.333 -52.667 -57.666 -106 -90.999 -160c-4.66699 -12 -9 -18 -13 -18s-7.66699 6.33301 -11 19c-3.33301 10.667 -6.33301 21 -9 31
c-4 19.333 -11 47.666 -21 84.999c-2 4.66699 -5 13 -9 25l-7 26c-2.66699 5.33301 -5.66699 13.333 -9 24c-3.33301 6 -6.66602 8.66699 -9.99902 8c2 2 1.66699 3.66699 -1 5s-5.33398 1.33301 -8.00098 0l-2 -1l2 -1l-2 1l-2 -1c0 -2 -1 -5.33301 -3 -10l-24 -71
c4 10.667 9.33301 25.667 16 45l7 27c0 -2 0.333008 -2.33301 1 -1c0.666992 0.666992 1.66699 4 3 10l-2 -2l1 2l-1 -2c-0.666992 -1.33301 -1 -2.66602 -1 -3.99902c-5.33301 -18.667 -17.333 -53 -36 -103c-2.66699 0 -4.66699 -2.66699 -6 -8
c-2 -7.33301 -3 -11.333 -3 -12c-4.66699 -18 -11.667 -41 -21 -69c0 -1.33301 -0.333008 -3.66602 -1 -6.99902l-6 4l3 -2l-6 4c-16.667 10.667 -40.334 27.667 -71.001 51c-12 8 -20.667 12 -26 12c-6 0 -9.66699 -3.66699 -11 -11l12 -42l25 -91
c-1.33301 4 -6.66602 27 -15.999 69c6 -20.667 13 -50.334 21 -89.001c-1.33301 3.33301 -3 9 -5 17c1.33301 -14 3.33301 -32 6 -54c-15.333 0 -38.666 -1 -69.999 -3c-11.333 -0.666992 -22.666 -1.66699 -33.999 -3c-14 -1.33301 -26 -4.66602 -36 -9.99902
c0.666992 -12.667 7 -23 19 -31c15.333 -10.667 24 -17.667 26 -21c10 -11.333 24.667 -29 44 -53c4 -6 10.333 -15 19 -27c0.666992 -0.666992 1 -1.66699 1 -3h-2l-17 -5c-36.667 -9.33301 -58.667 -15.333 -66 -18c-24.667 -8 -46 -18 -64 -30
c-1.33301 -10 2 -16.333 10 -19l20 -4.5c7.33301 -1.66699 17.333 -4.83398 30 -9.50098c17.333 -6 38.333 -15.333 63 -28l31 -15c2.66699 -1.33301 7 -4.33301 13 -9l-4 -3c-10.667 -8.66699 -30.334 -22 -59.001 -40c-1.33301 -2.66699 -2 -5.33398 -2 -8.00098
c0 -10 9.33301 -15.667 28 -17c24 -1.33301 59.667 -3.66602 107 -6.99902c7.33301 -1.33301 16.333 -2 27 -2c-4.66699 -9.33301 -9.66699 -18.333 -15 -27c-0.666992 -2 -3.33398 -5.66699 -8.00098 -11s-7 -9.33301 -7 -12c0 -2 1 -4 3 -6
c-8.66699 1.33301 -13.5 -0.166992 -14.5 -4.5s-1.5 -8.5 -1.5 -12.5c0 -0.666992 -3.33301 -4 -10 -10l-25 -30c-0.666992 -2.66699 -1 -5.33398 -1 -8.00098c0 -7.33301 4.66699 -12.666 14 -15.999c8.66699 -2.66699 15.667 -2.33398 21 0.999023
c11.333 0.666992 37 6.66699 77 18c14 4 26.333 8 37 12l9 4c-12.667 -22.667 -29.667 -57.334 -51 -104.001l-8 -24c0 -1.33301 0.333008 -3.33301 1 -6l2 -3l8 -10c15.333 -0.666992 29.333 3.66602 42 12.999c20.667 15.333 31.5 23 32.5 23s10.833 6.33301 29.5 19l8 5
c0.666992 0 1 0.333008 1 1c4.66699 1.33301 8 3.66602 10 6.99902c3.33301 1.33301 8 3.33301 14 6c2.66699 2 7.16699 4.33301 13.5 7s11.833 5.33398 16.5 8.00098l13 2c3.33301 -5.33301 4.66602 -8.33301 3.99902 -9c3.33301 -15.333 9.33301 -39 18 -71
c4 -8 11.667 -19.667 23 -35c4.66699 -4 9.33398 -5.66699 14.001 -5c9.33301 1.33301 13.666 2 12.999 2c2 2 5 6.66699 9 14c2.66699 2 4.33398 4.33301 5.00098 7c10 12 24.333 31.667 43 59c0 -0.666992 0.333008 -0.666992 1 0l5 -6l21 -29
c10 -12.667 24.667 -32.667 44 -60c4.66699 -2.66699 9.66699 -4 15 -4c6 0 8.66699 0 8 0h6c4.66699 4 9 8.33301 13 13v0c0 -0.666992 -0.666992 -1.33398 -2 -2.00098v0l1 11l3 53c2.66699 1.33301 4.66699 3 6 5c10.667 3.33301 19.334 3.66602 26.001 0.999023
c12.667 -3.33301 22.334 -6.83301 29.001 -10.5s19.334 -8.83398 38.001 -15.501c2 0.666992 4.16699 0.5 6.5 -0.5s4.16602 -1.5 5.49902 -1.5c3.33301 0 9.33301 4.33301 18 13l1 19c-0.666992 6.66699 -3 19.334 -7 38.001l-8 34c-0.666992 4 -1.33398 10 -2.00098 18
l-1 4c21.333 2.66699 40.333 1 57 -5l15 -6c6 -6 11.667 -9 17 -9c0.666992 0 4 1.66699 10 5h3l11 11c-1.33301 -1.33301 -1 -1 1 1v8c-1.33301 4.66699 -3 11.667 -5 21c-6.66699 22.667 -15.667 57.667 -27 105l-3 13c15.333 -2 32.666 -9 51.999 -21l26 -8
c8.66699 -2.66699 14.334 -7 17.001 -13h2h3v0c8.66699 -0.666992 15 2.66602 19 9.99902c2 13.333 2 21.333 0 24c-2 4 -3.33301 6.33301 -4 7c-20 42.667 -46 83.667 -78 123l31 19l70 48c0.666992 0 3.33398 3 8.00098 9c0.666992 -1.33301 0.666992 -1 0 1
c1.33301 1.33301 2.66602 3.33301 3.99902 6l1 7c0 0.666992 0.333008 2.33398 1 5.00098v9c-0.666992 0.666992 -0.5 1 0.5 1s-2.5 4.66699 -10.5 14z" />
    <glyph glyph-name="bar" unicode="|" horiz-adv-x="166" 
d="M152 643c-6 -13.333 -7.00293 -25.9971 -3.00293 -37.9971c-9.33301 -20.667 -14.666 -50.667 -15.999 -90c-1.33301 -46 -4 -76.667 -8 -92c-2.66699 -24.667 -6 -64.334 -10 -119.001c2 -4 3 -7.66699 3 -11s-1 -6.66602 -3 -9.99902c0 -6 -2.66699 -47 -8 -123
c-3.33301 -48.667 -3.66602 -90 -0.999023 -124c-3.33301 -6 -5 -14.667 -5 -26c0 -4.66699 0.5 -11.334 1.5 -20.001s1.5 -15.334 1.5 -20.001c0 -9.33301 -1 -16.666 -3 -21.999c0 -17.333 1 -38.333 3 -63c0.666992 -16 3.33398 -37.333 8.00098 -64
c-0.666992 -12 4 -28.333 14 -49c2.66699 -12 4 -22 4 -30c0 -16 -5.33301 -23 -16 -21c-30 27.333 -49 77 -57 149c0.666992 2 0.666992 20.667 0 56c-1.33301 80.667 6.66699 257.667 24 531c5.33301 82.667 10.333 143 15 181c1.33301 12.667 6.66602 31 15.999 55
c4.66699 12 11.667 18.667 21 20c8 1.33301 16.667 -3.33398 26 -14.001c4.66699 -16.667 2.33398 -35.334 -6.99902 -56.001z" />
    <glyph glyph-name="braceright" unicode="}" horiz-adv-x="509" 
d="M231 58l-3.00098 2.00195c-1.33301 1.33301 -2.33301 2.66602 -3 3.99902c-4 3.33301 -10 8 -18 14l-2 1c-2 0.666992 -3.66699 1.66699 -5 3c-7.33301 3.33301 -24 11.666 -50 24.999c-16.667 8.66699 -36.334 24.334 -59.001 47.001c-10.667 10.667 -20 25 -28 43
c-1.33301 5.33301 -3.33301 11.666 -6 18.999c-8 22 -11.333 37.667 -10 47c2.66699 17.333 9.33398 34.666 20.001 51.999c6.66699 6.66699 14.334 13.334 23.001 20.001c21.333 16.667 45.333 25.334 72 26.001c4.66699 0.666992 11 0.666992 19 0
c8 -2 19.333 -4.66699 34 -8c15.333 -5.33301 27.666 -17.333 36.999 -36l1 1c2.66699 8 6.33398 14.333 11.001 19c1.33301 2 3 3.66699 5 5c14.667 13.333 33 20 55 20c21.333 0 41.666 -4 60.999 -12c10.667 -4.66699 18.667 -10.667 24 -18
c28 -24.667 42 -58.334 42 -101.001c0 -11.333 -0.666992 -21 -2 -29c-6.66699 -40.667 -40.667 -72.334 -102 -95.001c-16 -6 -33 -13.667 -51 -23c-1.33301 -0.666992 -7 -4.66699 -17 -12l-9 -6v-11c-2.66699 -2 -5.33398 -3 -8.00098 -3
c-1.33301 0 -2.66602 0.333008 -3.99902 1l-3 -4c-0.666992 -1.33301 -2 -3.66602 -4 -6.99902l-4 -3h1l1 1v-1h-1c-1.33301 -2 -3.33301 -3 -6 -3c-3.33301 0 -5.66602 1.33301 -6.99902 4l-1 -8c-3.33301 15.333 -4.33301 24 -3 26zM323.999 342.002
c-16 0.666992 -29 -3 -39 -11c4.66699 2 17.667 5.66699 39 11zM401.999 158.002c20.667 17.333 31 41.333 31 72v4c-2 -32 -12 -56.333 -30 -73zM245.999 94.002c2 -2.66699 4.99902 -6.00195 8.99902 -10.002c7.33301 6 19.333 14 36 24c18 7.33301 37.667 18 59 32l20 14
c2 2 6 6.33301 12 13c24 26.667 35 56 33 88c0 4 -2 11.333 -6 22c-6.66699 12.667 -14 22 -22 28h-1c-14.667 11.333 -30.667 17 -48 17c-10 0 -21.667 -2 -35 -6c-8.66699 -6 -17.667 -12.667 -27 -20c-7.33301 -14.667 -10 -26 -8 -34
c1.33301 -1.33301 2 -2.66602 2 -3.99902c0 -3.33301 -3.33301 -5.66602 -10 -6.99902l-1 -1c-2.66699 -0.666992 -5 -0.666992 -7 0c-3.33301 2.66699 -5 5 -5 7l-1 2c-1.33301 2.66699 -2 5 -2 7v2c-5.33301 4.66699 -7 10.334 -5 17.001
c-1.33301 2.66699 -7 8.33398 -17 17.001l-10 7c-6.66699 1.33301 -13.667 3.33301 -21 6c-22.667 0 -36.667 -1 -42 -3c-15.333 -4 -28.333 -12 -39 -24c-6 -10.667 -10.333 -22.334 -13 -35.001c0.666992 -2.66699 0.333984 -7 -0.999023 -13
c2 -20.667 7.66699 -36.667 17 -48l33 -33h2c10 -5.33301 24.333 -14 43 -26c18 -6 26.333 -9 25 -9c7.33301 -1.33301 18.333 -6.33301 33 -15c2.66699 -2.66699 4 -5 4 -7c0 -2.66699 -2 -5.33398 -6 -8.00098h-1zM236.998 309l1 -1c0 0.666992 -0.333008 1 -1 1z" />
    <glyph glyph-name="asciitilde" unicode="~" horiz-adv-x="288" 
d="M207 723c6 2.66699 9.66211 4 10.9951 4c16 11.333 32.667 33.333 50 66c10 18 18.333 27 25 27s11.334 -10.333 14.001 -31l-24 -42c-8 -6.66699 -18 -17.667 -30 -33s-23 -25.666 -33 -30.999c-17.333 1.33301 -31 10.333 -41 27c-4 6.66699 -11 23 -21 49
c-3.33301 8.66699 -8.66602 21.167 -15.999 37.5s-16.666 25.166 -27.999 26.499c-16.667 -6 -30.667 -20.333 -42 -43c-3.33301 -6.66699 -10 -26.334 -20 -59.001c-2 -7.33301 -7 -12 -15 -14s-12 6.33301 -12 25c0 32 14 66.333 42 103c1.33301 0 3.5 0.833008 6.5 2.5
s4.5 3.83398 4.5 6.50098c16.667 12.667 32 18.334 46 17.001c18 -5.33301 33.667 -22.333 47 -51c4.66699 -4.66699 8.83398 -13.834 12.501 -27.501s8.5 -22.167 14.5 -25.5v-8c0 -1.33301 -0.666992 -2.33301 -2 -3l2 -4c0.666992 -5.33301 2.33398 -7.33301 5.00098 -6
l2 -11l2 2v-4z" />
    <glyph glyph-name="nonbreakingspace" unicode="&#xa0;" horiz-adv-x="182" 
 />
    <glyph glyph-name="exclamdown" unicode="&#xa1;" horiz-adv-x="611" 
d="M522 727h2.99512c1.33301 1.33301 3.33301 1 6 -1c6 -4 10.333 -6.66699 13 -8c4 -3.33301 6.33301 -7.66602 7 -12.999c2 -2 5.66699 -13 11 -33c0.666992 -30 -20.666 -62 -63.999 -96c-7.33301 -4.66699 -18.666 -10 -33.999 -16c-4.66699 -1.33301 -11 -2 -19 -2h-7
c-2.66699 0 -6 -0.333008 -10 -1c-2 2.66699 -6 3.33398 -12 2.00098c0 15.333 3 23.333 9 24c22 -2 42.667 3.5 62 16.5s34 30.167 44 51.5c3.33301 7.33301 5 14.666 5 21.999c0 10.667 -4.33301 20.334 -13 29.001
c-1.33301 0.666992 -2.66602 0.333984 -3.99902 -0.999023l-3 -2c-4 -2 -7.66699 -2.66699 -11 -2c-9.33301 -5.33301 -25 -13 -47 -23c-4 1.33301 -9.66699 4.66602 -17 9.99902v7c0 4.66699 4.66699 9 14 13l9 4c6.66699 4 12.667 6.33301 18 7c13.333 12 20 26 20 42
c0 33.333 -27.333 66.666 -82 99.999c-24 14.667 -48 23.667 -72 27c-1.33301 0 -2.66602 0.666992 -3.99902 2l-36 6c-7.33301 1.33301 -18.333 0.666016 -33 -2.00098c-8.66699 0.666992 -19 -0.333008 -31 -3l-32 -7c-6 -2 -17 -7.33301 -33 -16
c-4.66699 -2 -13 -6.33301 -25 -13c-7.33301 -2.66699 -15.666 -8.33398 -24.999 -17.001c-14.667 -13.333 -22.667 -20.333 -24 -21c-1.33301 -3.33301 -3.66602 -5.33301 -6.99902 -6c-4 -4.66699 -15.333 -19 -34 -43l-8 -16l-12 -27c-6 -10.667 -10 -28 -12 -52
c-3.33301 -44.667 14.334 -79.667 53.001 -105l32 -12c10.667 -4 20 -11.333 28 -22c-1.33301 -3.33301 -4 -5 -8 -5c-4.66699 0 -8.33398 0.666992 -11.001 2c-4.66699 4 -12.5 7 -23.5 9s-18.833 4.66699 -23.5 8c-34.667 13.333 -57.334 43 -68.001 89
c-7.33301 30.667 -4.66602 61.667 8.00098 93v5c33.333 80 91.666 134.667 174.999 164c34 12 67.333 18 100 18c29.333 0 59 -5 89 -15c2 -1.33301 4 -1.66602 6 -0.999023c28 -13.333 47 -23.333 57 -30c22 -14 37.667 -27.667 47 -41c23.333 -24.667 35 -52 35 -82
c-0.666992 -1.33301 -2 -5 -4 -11zM208.995 298v-1.99902c2.66699 -2.66699 3.33398 -5.66699 2.00098 -9v-1c5.33301 -10.667 8.66602 -16 9.99902 -16l-3 15c-1.33301 5.33301 -2.33301 9.66602 -3 12.999h-6zM155.995 154.001
c-0.666992 -2.66699 -2.33887 -5.33301 -5.00586 -8c6 -1.33301 12.333 -2.33301 19 -3c7.33301 -2.66699 12.333 -10 15 -22c-26.667 -2 -41 -2.66699 -43 -2l-12 -1c0 2 -1.66699 10.333 -5 25c-0.666992 2 -1 4 -1 6c0 4 1 7.33301 3 10
c6.66699 19.333 18.334 31.666 35.001 36.999c6 2 12 -1.33301 18 -10c0.666992 -0.666992 1.66699 -1.33398 3 -2.00098v3c-0.666992 2.66699 -1 6 -1 10c0 10.667 2.66699 26.667 8 48l6 6c-4 8.66699 -8.66699 22.667 -14 42c-1.33301 1.33301 -2 5.66602 -2 12.999
c-4 13.333 -6.66699 29 -8 47c-2 20.667 -3.66699 36.667 -5 48c-4 33.333 -9.33301 68.666 -16 105.999c0.666992 5.33301 -0.333008 13 -3 23s-4 17.333 -4 22c0.666992 1.33301 1.33398 2.33301 2.00098 3l-5 -1c-3.33301 2 -8.33301 6 -15 12
c-10 6 -16.667 21.667 -20 47c12 -2.66699 21 -8.33398 27 -17.001l4 -6c4.66699 -7.33301 10.334 -11 17.001 -11c8 2.66699 19.333 7.66699 34 15c8 -6 15 -9 21 -9c2.66699 0 5 0.666992 7 2c8.66699 0 21.334 -2.66699 38.001 -8
c8 -0.666992 17.667 -5.33398 29 -14.001h7c-3.33301 -14 -8.66602 -20.333 -15.999 -19c-20 9.33301 -38 14 -54 14c-4.66699 0 -12 -0.666992 -22 -2c-3.33301 1.33301 -6.33301 3.33301 -9 6l-2 2c-4.66699 -2.66699 -12.334 -5 -23.001 -7c2 -6.66699 3 -14 3 -22
c3.33301 -14.667 7 -36.667 11 -66c0 -2.66699 1 -6.5 3 -11.5s3 -8.83301 3 -11.5s-0.333008 -5 -1 -7c0 -8 2 -17 6 -27c0.666992 -2.66699 1 -7.66699 1 -15c-0.666992 -3.33301 0.333008 -5.66602 3 -6.99902c0 -8 4.66699 -37.333 14 -88l7 5v3
c0 3.33301 -0.666992 8.33301 -2 15c-1.33301 15.333 -1.66602 24.333 -0.999023 27c-1.33301 17.333 -1.66602 33 -0.999023 47c0 13.333 0.666992 37.333 2 72c0.666992 10.667 1 19.667 1 27c-0.666992 8.66699 -1.66699 24.334 -3 47.001c0 4.66699 4.33301 7 13 7
c5.33301 -59.333 7.66602 -93.666 6.99902 -102.999c-1.33301 -4.66699 -1 -11 1 -19l-1 -22c2 -2.66699 2.33301 -6.66699 1 -12c1.33301 -2.66699 1.33301 -5 0 -7c0 -4 0.666992 -11.5 2 -22.5s1.66602 -19.5 0.999023 -25.5c0.666992 -2 1.33398 -5 2.00098 -9
c0 -6 1.33301 -14.333 4 -25c0 -2 0.833008 -5.33301 2.5 -10s2.5 -8.33398 2.5 -11.001v-1l3 -3c1.33301 -0.666992 3 -2.66699 5 -6c3.33301 0 5.66602 0.333008 6.99902 1l8 2c-2 5.33301 -2.66699 9 -2 11c-4 20 -6 58.667 -6 116v57l1 -4c0 0.666992 0.333008 2 1 4v13
l12 -1c0 -1.33301 1 -3.33301 3 -6c1.33301 -3.33301 1.33301 -6.66602 0 -9.99902c0.666992 -1.33301 1 -5.33301 1 -12c1.33301 -3.33301 1.33301 -10 0 -20c0.666992 -15.333 2 -38.666 4 -69.999c2.66699 -12.667 5.33398 -31.667 8.00098 -57c1.33301 -2 2 -5 2 -9v-3
c0 -3.33301 3.33301 -5 10 -5h6c12 3.33301 35.667 7.66602 71 12.999c4 0 10.667 1.33301 20 4h3v31c-2 26.667 -6 75.334 -12 146.001l-7 89c2 1.33301 4 3.83301 6 7.5s4.66699 5.5 8 5.5c2.66699 0 6 -2 10 -6c0.666992 -22.667 3.33398 -55.334 8.00098 -98.001
c1.33301 -9.33301 3.33301 -26.333 6 -51v-8l-1 -1c1.33301 -5.33301 2.66602 -12 3.99902 -20c0 -5.33301 0.666992 -10 2 -14c0 -18 2.33301 -43 7 -75c-0.666992 -6 -1 -11.333 -1 -16c0.666992 5.33301 2.66699 10 6 14c0.666992 2 6 9 16 21
c0.666992 1.33301 2.33398 3.33301 5.00098 6l5 6c4.66699 6 8.66699 9.66699 12 11c1.33301 4 19.666 21.667 54.999 53c7.33301 -3.33301 11 -7.66602 11 -12.999c0 -4 -2.66699 -8 -8 -12c-2 -1.33301 -4.66699 -4 -8 -8l-53 -58l-10 -19c-4 -8 -5.33301 -15 -4 -21
c-2.66699 -6 -7.66699 -8 -15 -6c-2 0.666992 -3.66699 1.33398 -5 2.00098c0 -7.33301 -3.66699 -11 -11 -11c-5.33301 0 -10 3.33301 -14 10l-3 4c-0.666992 1.33301 -1.66699 2 -3 2s-2.66602 -0.333008 -3.99902 -1c-4 0 -9.83301 -0.666992 -17.5 -2s-13.5 -2 -17.5 -2
c-12.667 -2.66699 -40.334 -6.33398 -83.001 -11.001c-12.667 -1.33301 -33.334 -7 -62.001 -17c-1.33301 0 -2.66602 -3.16699 -3.99902 -9.5s-4 -10.833 -8 -13.5c-1.33301 -6 -2 -11.333 -2 -16c0 -7.33301 1.33301 -12.666 4 -15.999
c-0.666992 -2 -0.666992 -4.33301 0 -7s0.666992 -5.33398 0 -8.00098c4 5.33301 6.33301 8.33301 7 9c4 3.33301 9 5.33301 15 6c1.33301 -1.33301 2.66602 -3.33301 3.99902 -6c-1.33301 0 1.33398 -2.33301 8.00098 -7c-1.33301 1.33301 -2 2.33301 -2 3h1
c1.33301 -1.33301 2.33301 -2.66602 3 -3.99902l-3 -8c-1.33301 -5.33301 -3.33301 -9 -6 -11v-3h-10l-4 4v-1l-2 1c-4 0 -7.33301 3 -10 9c0 0.666992 -0.666992 2 -2 4l-1 -1l3 -7c0.666992 -4.66699 0.333984 -8.66699 -0.999023 -12l-8 -2h1v-1l-1 -1
c-2 -1.33301 -4 -2 -6 -2s-4 0.666992 -6 2c-4 4 -6.33301 6.66699 -7 8l-2 4c-0.666992 1.33301 -2 3.33301 -4 6l1 8l-1 -1c-4.66699 -7.33301 -13 -11.666 -25 -12.999zM513.99 63.002l-2.00293 -1.99609c-4 -4 -10.333 -8.33301 -19 -13
c-5.33301 -2.66699 -11.666 -6.66699 -18.999 -12c-3.33301 -1.33301 -10.833 -4.5 -22.5 -9.5s-20.834 -7.5 -27.501 -7.5c-28.667 -12 -68 -17.333 -118 -16c-2.66699 2.66699 -6 3.66699 -10 3h-10c-32.667 6 -57 21 -73 45c-3.33301 4 -4.33301 9.33301 -3 16
c4.66699 3.33301 9 5 13 5c2.66699 0 9.66699 -6 21 -18l20 -15c31.333 -8 51 -11.333 59 -10c4 -2 11 -2.33301 21 -1c8 0.666992 14.667 0.666992 20 0c33.333 7.33301 64.666 16.666 93.999 27.999c9.33301 5.33301 19.833 12 31.5 20s20.5 16.333 26.5 25
c18.667 27.333 28 51 28 71c0 8.66699 -1.66699 17 -5 25c0 2.66699 -1.16699 6.5 -3.5 11.5s-3.5 8.5 -3.5 10.5c0 4.66699 3 9 9 13c9.33301 0 17 5.33301 23 16c0 13.333 -2.33301 21 -7 23h-5c-2.66699 0 -4.66699 -0.333008 -6 -1c-3.33301 0 -5.33301 -1 -6 -3
c-2.66699 -2.66699 -6.66699 -5 -12 -7c-2 -0.666992 -3.33301 -3 -4 -7c-3.33301 -0.666992 -6 -2.33398 -8 -5.00098c1.33301 -2.66699 1 -9.33398 -1 -20.001c-13.333 1.33301 -22 7.66602 -26 18.999c0 2.66699 0.333008 5.33398 1 8.00098c-4.66699 -8 -11 -8 -19 0
c-1.33301 6 -0.666016 12 2.00098 18c4.66699 9.33301 7 14.666 7 15.999c14.667 22 32.667 31.667 54 29l4 -12c-7.33301 -2 -15.333 -8.66699 -24 -20c-1.33301 -0.666992 -3.66602 -3 -6.99902 -7l6 4c18 10.667 31.667 16 41 16c4.66699 0 9.33398 -1 14.001 -3
c15.333 -16.667 23 -34 23 -52c-2 -18 -12 -30.667 -30 -38v-3c4 -9.33301 6 -19.333 6 -30c0 -14.667 -4.33301 -33 -13 -55c-5.33301 -13.333 -20.666 -35.333 -45.999 -66zM358.987 162.006l-1.99805 -2c-6 -6 -10.667 -8.33301 -14 -7l-4 1
c-2.66699 0.666992 -5.33398 1 -8.00098 1v6c-0.666992 2.66699 -1 4.66699 -1 6c0 4 1.33301 7.66699 4 11c1.33301 0.666992 2.33301 1 3 1l1 1l1 2c3.33301 4 7.66602 5.66699 12.999 5l10 -9c0.666992 -2 1 -4 1 -6c0 -4 -1.33301 -7.33301 -4 -10zM396.989 67.0059
l0.000976562 -1.00098c-1.33301 -2 -3.33301 -5.33301 -6 -10c-5.33301 -4 -10.333 -8 -15 -12c-2.66699 -1.33301 -5.66699 -2 -9 -2c-4 0 -8.66699 1 -14 3c0 2.66699 -0.666992 5.33398 -2 8.00098c-1.33301 6 -0.333008 10.667 3 14c4 1.33301 9.33301 3 16 5
c4 2.66699 9.66699 6.66699 17 12c9.33301 -4 12.666 -9.66699 9.99902 -17zM187.99 246.005c1.33301 -9.33301 -2.33203 -14 -10.999 -14c-6.66699 0 -11.334 3 -14.001 9l-1 2v1c-0.666992 0 -1 0.333008 -1 1c-3.33301 6 -10.333 14 -21 24
c0 2.66699 -1.66699 4.66699 -5 6l5 15c10 -7.33301 23.667 -19.333 41 -36h7v-8zM295.992 100.005c-14.667 -5.33301 -26.666 -8.00195 -35.999 -8.00195c-4 0 -7.33301 0.333008 -10 1c-11.333 16.667 -16 28.334 -14 35.001c2 7.33301 7.33301 9.66602 16 6.99902
c2.66699 -4 6 -9.66699 10 -17c5.33301 0.666992 12.666 2.33398 21.999 5.00098c3.33301 2.66699 7.33301 3.33398 12 2.00098c6 -0.666992 10 -1 12 -1c3.33301 -5.33301 5 -10 5 -14c0 -3.33301 -0.666992 -6 -2 -8c-4.66699 0 -9.66699 -0.666992 -15 -2z" />
    <glyph glyph-name="cent" unicode="&#xa2;" horiz-adv-x="662" 
d="M423 466c61.333 58 132.332 98.667 212.999 122c2.66699 -0.666992 8.33398 -0.333984 17.001 0.999023c14.667 2 24.667 -2.33301 30 -13c2.66699 -10.667 4 -20.334 4 -29.001c0 -14.667 -3.66699 -27.334 -11 -38.001c-2 -9.33301 -13.667 -26.666 -35 -51.999
c-2.66699 -4 -7 -9.33301 -13 -16c-9.33301 -6.66699 -22.333 -18 -39 -34c-14 -9.33301 -36.333 -22.666 -67 -39.999c39.333 -2.66699 64.666 -12.667 75.999 -30c21.333 -19.333 30 -42.666 26 -69.999c-9.33301 -35.333 -43.333 -59 -102 -71
c-27.333 -1.33301 -51.666 4.33398 -72.999 17.001c2.66699 -18 4.33398 -45.667 5.00098 -83l-6 -77c-7.33301 -30.667 -23 -49.334 -47 -56.001c-6.66699 -2.66699 -13.667 -4 -21 -4c-16 0 -30.667 4.66699 -44 14c-33.333 22.667 -57.333 59.667 -72 111
c-1.33301 10 -2 20.667 -2 32c0 8 0.333008 16.333 1 25h-1c-33.333 -12 -59.333 -18 -78 -18c-25.333 0 -58.666 8 -99.999 24c-8 4 -21.333 8 -40 12c-2 4.66699 -3 9.33398 -3 14.001c0 6 8 18.667 24 38c10.667 8.66699 27.667 19.667 51 33c4 4 13.667 9.66699 29 17
c3.33301 4 11.666 10.333 24.999 19c-5.33301 2 -13.333 7 -24 15c-4 2 -13 9 -27 21s-32.333 28.667 -55 50c-4 4.66699 -6 9.66699 -6 15c0 1.33301 3 11.333 9 30c15.333 16.667 23.666 26 24.999 28c10 10 20.333 17.333 31 22c8.66699 10.667 19.667 16 33 16
c52 0 99 -30.333 141 -91l2 2c1.33301 0.666992 2.66602 1.66699 3.99902 3c-2.66699 14 -4 28.333 -4 43c0 66 36.667 129 110 189c27.333 22.667 58 38.667 92 48c10 -2.66699 14 -9.33398 12 -20.001v-6c-3.33301 -23.333 -8.66602 -43.333 -15.999 -60
c-8 -31.333 -19.667 -57.333 -35 -78c-1.33301 -6 -3.66602 -10.333 -6.99902 -13c-6.66699 -14 -17.334 -34.667 -32.001 -62zM481.999 374l-5 0.00195312c26.667 8 50.334 19 71.001 33c6 4 26 19.667 60 47c10 11.333 24 29 42 53c0.666992 3.33301 3 9.66602 7 18.999
s6 17 6 23c0 4 -0.666992 7.66699 -2 11c-0.666992 1.33301 -8.33398 3.33301 -23.001 6l-1 -1c-21.333 -4 -63 -22 -125 -54c-28 -20 -49.333 -39 -64 -57l-33 -41c-3.33301 -0.666992 -5.33301 -2 -6 -4l-2 -4c21.333 -10.667 35 -23.334 41 -38.001c16 0 27 2 33 6
c0 0.666992 0.333008 1 1 1zM380.999 429.002c4.66699 15.333 14.999 36.668 30.999 64.001c2.66699 7.33301 15 30.333 37 69c20.667 46.667 33.334 84.334 38.001 113.001h-5c-4 0 -7.33301 -2 -10 -6c-18.667 -4.66699 -38 -16 -58 -34
c-2.66699 0.666992 -4.66699 -0.166016 -6 -2.49902s-2.83301 -4 -4.5 -5s-2.5 -1.83301 -2.5 -2.5l-2 -1l-2 -2c-2.66699 -2.66699 -5.33398 -4.66699 -8.00098 -6c0 -1.33301 -0.666992 -3 -2 -5c-14.667 -13.333 -24.667 -24 -30 -32v-2
c-0.666992 -0.666992 -1 -1.33398 -1 -2.00098l8 6c-21.333 -20 -34 -40.333 -38 -61c-0.666992 -3.33301 -2 -22 -4 -56c0.666992 -1.33301 2.33398 -3.66602 5.00098 -6.99902c0.666992 -0.666992 1 -3.83398 1 -9.50098s1.66699 -7.83398 5 -6.50098
c8.66699 2 15.334 3 20.001 3c3.33301 0 6.16602 -0.333008 8.49902 -1s8.83301 -5.33398 19.5 -14.001zM590.998 304.004c-8.66699 20 -27.001 31.668 -55.001 35.001c-14 1.33301 -37 0.666016 -69 -2.00098v-1c0.666992 -3.33301 2.33398 -8.83301 5.00098 -16.5
s4 -14.167 4 -19.5c0 -20.667 -9.66699 -39 -29 -55c16 -16.667 36.667 -25 62 -25c19.333 0 37 4 53 12c19.333 9.33301 31 22.333 35 39c2 8 0 19 -6 33zM319.997 402.005c-1.33301 -0.666992 -4.33301 -3.33008 -9 -7.99707l-2 -4c-2.66699 -4 -6.33398 -7 -11.001 -9
l-25 -46c-8.66699 -16.667 -13 -33 -13 -49c0 -27.333 10.333 -43 31 -47c8.66699 -6.66699 19.334 -10 32.001 -10c6.66699 0 32 7 76 21c2 -0.666992 3.33301 0.666016 4 3.99902c4 9.33301 10.667 13.666 20 12.999c1.33301 -1.33301 2.66602 -2 3.99902 -2
c2.66699 0 5.33398 1 8.00098 3l3 3c0.666992 0.666992 1.33398 1 2.00098 1c8.66699 7.33301 13 16.666 13 27.999c0 4 -0.833008 8.33301 -2.5 13l-7.5 20c-2 1.33301 -6 1 -12 -1h-4c-2 -0.666992 -4 -1 -6 -1c-6 0.666992 -13.333 7 -22 19
c5.33301 6.66699 13.333 11 24 13c-6.66699 8.66699 -14.667 14.667 -24 18c-1.33301 -14 -1.33301 -24.667 0 -32c-16 3.33301 -24 11.333 -24 24c0 1.33301 0.333008 3 1 5v10c-0.666992 2 -1.33398 3.5 -2.00098 4.5s-5.33398 2.33301 -14.001 4s-15 4.5 -19 8.5l-1 -1
c-5.33301 -3.33301 -9.66602 -5 -12.999 -5c-2 0 -3.66699 0.333008 -5 1zM279.997 400.009c-6.66699 -2.66699 -11.3359 -0.334961 -14.0029 6.99805c-6.66699 18.667 -19.667 35.834 -39 51.501s-38.333 23.5 -57 23.5c-6.66699 0 -24 -6 -52 -18
c-17.333 -12 -28.666 -27.667 -33.999 -47c3.33301 -8 10 -16 20 -24l28 -24c4 -1.33301 6.66699 -3.66602 8 -6.99902l1 -3c22.667 -15.333 50.667 -26.333 84 -33c4.66699 -3.33301 8.33398 -5 11.001 -5c8.66699 22 23.334 48.333 44.001 79zM417.995 206.008l-6 21
c-40 -16 -72 -24 -96 -24c-6.66699 0 -13 0.333008 -19 1c-9.33301 -37.333 -14 -57.666 -14 -60.999c0 -37.333 14.333 -69 43 -95c5.33301 -8 16.333 -17 33 -27c12 -3.33301 23.667 -3.33301 35 0c9.33301 2.66699 17.333 15.667 24 39
c0 5.33301 2.33301 13.666 7 24.999c4 50.667 1.66699 91 -7 121zM229.995 290.008c-8 6 -16.002 9.00195 -24.002 9.00195s-16.667 -3 -26 -9c-2.66699 -3.33301 -7.66699 -6.33301 -15 -9s-11.666 -5 -12.999 -7c-3.33301 -5.33301 -8 -8 -14 -8l-39 -31l-16 -12
c-7.33301 -6.66699 -10.666 -11.334 -9.99902 -14.001c18.667 -8 47 -17.333 85 -28c39.333 1.33301 70 7.66602 92 18.999c4 3.33301 9.33301 8.66602 16 15.999c-24 14.667 -36 39.334 -36 74.001z" />
    <glyph glyph-name="sterling" unicode="&#xa3;" 
d="M407 63c7.33301 4.66699 16.6719 7 28.0049 7c4.66699 0 8 -1.33301 10 -4s0.666992 -7.66699 -4 -15c-29.333 -44.667 -77 -67 -143 -67c-40.667 0 -84.334 8.33301 -131.001 25c-14.667 4.66699 -25.667 8.33398 -33 11.001c-2 0 -5.33301 1.16699 -10 3.5
s-12 3.5 -22 3.5c-10.667 0 -18 -2.66699 -22 -8c-8.66699 -10.667 -19 -16 -31 -16c-4 0 -8.66699 1 -14 3c-7.33301 6 -11 14.333 -11 25c0 5.33301 1 13.5 3 24.5s6.66699 28.5 14 52.5c2 8 9.66699 22.333 23 43c6 8.66699 13 13 21 13c5.33301 0 12 -5 20 -15
c0 -2 1 -4.66699 3 -8l5 25c15.333 74 28.333 132.667 39 176c-4.66699 -0.666992 -9.66699 -1 -15 -1c-4 0 -10 0.666992 -18 2s-14 2 -18 2c-7.33301 0 -14.666 -1 -21.999 -3c-13.333 2 -25.333 8.33301 -36 19c5.33301 13.333 13.333 20.333 24 21
c18.667 1.33301 29 2.66602 31 3.99902c10 4.66699 33 9 69 13c0 1.33301 4.33301 19.333 13 54l12 49c8.66699 36.667 17 68.667 25 96c3.33301 14 6 23 8 27c7.33301 18 25.666 27 54.999 27c35.333 0 62.666 -9.33301 81.999 -28c10.667 -10 11 -20.333 1 -31
c-4.66699 -4.66699 -11.334 -5 -20.001 -1c-0.666992 0 -11.334 6 -32.001 18c-15.333 9.33301 -25.666 14 -30.999 14c-9.33301 0 -17 -10 -23 -30c-8.66699 -30.667 -25.667 -100 -51 -208c4 0.666992 9 0.333984 15 -0.999023s10.333 -2 13 -2c21.333 0 40.333 -2 57 -6
l10 -11c0 -6 -2.33301 -11.667 -7 -17c-13.333 0.666992 -28 0.666992 -44 0c-16.667 -0.666992 -34.334 -2.33398 -53.001 -5.00098l-20 -97l-15 -79c-9.33301 -46.667 -14 -72 -14 -76c0 -9.33301 2.33301 -19.333 7 -30c1.33301 -1.33301 4.66602 -3 9.99902 -5l58 -24
c22 -8.66699 42.333 -13 61 -13c38 0 79 14.333 123 43zM104.006 109c-2.66699 0.666992 -5.33398 3.00098 -8.00098 7.00098l-2 3c-0.666992 2 -2 3.33301 -4 4c-5.33301 -6 -11.666 -16 -18.999 -30v-3c-0.666992 -0.666992 -3.33398 -8.33398 -8.00098 -23.001v-4
c0 -1.33301 -0.166992 -3.16602 -0.5 -5.49902s-0.833008 -4.83301 -1.5 -7.5c-2 -6 -0.666992 -9 4 -9c6 0 17.667 7.33301 35 22l1 12c0 6.66699 0.333008 12 1 16c0.666992 1.33301 0.833984 3.16602 0.500977 5.49902s0.166992 6.5 1.5 12.5z" />
    <glyph glyph-name="yen" unicode="&#xa5;" horiz-adv-x="740" 
d="M672 240l1.00195 0.00878906c2 -4.66699 2.66699 -7.66699 2 -9c3.33301 -24.667 3.33301 -49.334 0 -74.001c-5.33301 -36 -14.333 -61 -27 -75c-2 -5.33301 -6 -12 -12 -20l-71 -57c-1.33301 -2.66699 -4 -5.33398 -8 -8.00098l-2 -1l-1 -1
c-0.666992 -2.66699 -1 -3.66699 -1 -3c-8.66699 -6.66699 -17.334 -26.667 -26.001 -60c-2.66699 -7.33301 -6.66699 -23 -12 -47c-4 -17.333 -8.33301 -33.666 -13 -48.999c-1.33301 -11.333 -10.666 -39.333 -27.999 -84c-0.666992 -4.66699 -3 -12.334 -7 -23.001
c0 -3.33301 -4 -8.33301 -12 -15c-8 2.66699 -12 6.66699 -12 12c0 3.33301 1.33301 7.66602 4 12.999s4 9 4 11c30.667 71.333 46 142 46 212c0 24.667 -3 42.334 -9 53.001c-5.33301 18 -12.666 54 -21.999 108c-4 19.333 -10.333 54 -19 104
c-0.666992 2 -6.66699 17.333 -18 46c0.666992 -4.66699 1 -9.33398 1 -14.001c0 -8 -1 -16.333 -3 -25c1.33301 -2.66699 0.333008 -5.66699 -3 -9l-3 -3c-1.33301 -1.33301 -2.33301 -2 -3 -2l-2 -2c-2.66699 -2.66699 -5.33398 -4.66699 -8.00098 -6
c-26.667 -1.33301 -45 7 -55 25c-0.666992 2 -3 4.66699 -7 8c-2.66699 6.66699 -8 16 -16 28c0 -6.66699 0.333008 -12 1 -16c0 -4.66699 -0.666992 -11.667 -2 -21c-0.666992 -4.66699 -0.666992 -11.667 0 -21c-6 -18.667 -12.667 -31.334 -20 -38.001
c-2 -4 -7.66699 -9 -17 -15c-2.66699 -1.33301 -5.33398 -2 -8.00098 -2c-5.33301 0 -11.333 2.33301 -18 7l-6 5c-6.66699 7.33301 -14 27.666 -22 60.999c-7.33301 -14.667 -17.666 -37 -30.999 -67c-2 -1.33301 -4.33301 -4.33301 -7 -9l-3 -5l-3 -6
c-8.66699 -9.33301 -18.667 -14 -30 -14c-2.66699 0 -5.66699 0.333008 -9 1c-6 4 -12.333 12.667 -19 26c-0.666992 6 -0.666992 15 0 27c-1.33301 5.33301 -1.33301 13 0 23l1 2l-6 -6c-1.33301 -1.33301 -3.66602 -4.33301 -6.99902 -9
c-2.66699 -1.33301 -4.33398 -2.33301 -5.00098 -3l-1 -1l-1 -2c-2.66699 -4 -5.66699 -6.66699 -9 -8l-30 -26c-12 -8.66699 -24.667 -11.667 -38 -9c-10 8.66699 -13.667 26 -11 52c6 11.333 14 28.666 24 51.999l39 51c6.66699 7.33301 19.334 19.333 38.001 36
c2 3.33301 4 5.33301 6 6l2 1l1 1l14 11c2.66699 2 5.33398 3 8.00098 3c4.66699 0 9 -2.66699 13 -8c-0.666992 -5.33301 -3 -9 -7 -11l-9 -6c-4 -3.33301 -10.667 -8.33301 -20 -15c-3.33301 -4 -9.33301 -10 -18 -18l-7.5 -7.5
c-4.33301 -4.33301 -6.5 -8.16602 -6.5 -11.499c-6.66699 -5.33301 -13.667 -13.666 -21 -24.999l-18 -27c-2 -4 -6 -13.667 -12 -29c-0.666992 -2 -2.66699 -7.33301 -6 -16v-18c9.33301 0.666992 19 5 29 13l34 33c12.667 13.333 22.167 25.833 28.5 37.5
s18.833 27.167 37.5 46.5c4.66699 0.666992 8.33398 -1.33301 11.001 -6l1 -1h-1l2 -10c-4 -2 -8 -7.33301 -12 -16c-4.66699 -11.333 -7.66699 -17.666 -9 -18.999c-8.66699 -20.667 -13 -39.334 -13 -56.001c0 -13.333 2.66699 -25.333 8 -36c2 -0.666992 4.66699 0 8 2
c16 20.667 39.333 70 70 148c2.66699 2 5 3 7 3c4 0 7.33301 -3.33301 10 -10l3 -3c-0.666992 -10.667 -2.33398 -27.334 -5.00098 -50.001l6 -35c4 -14.667 10.667 -23.334 20 -26.001c9.33301 5.33301 17 15.666 23 30.999c2 16 3 32.333 3 49
c-1.33301 6 -1.33301 14.667 0 26c-2 8.66699 -4.66699 21.667 -8 39c4 4 7.66699 6 11 6h4l39 -65c4 -4 9 -10.667 15 -20l10 -10c5.33301 -3.33301 10.333 -5 15 -5c3.33301 0 6.33301 1 9 3c4.66699 11.333 7 22.666 7 33.999c0 15.333 -4 30 -12 44l-9 21
c-4.66699 4.66699 -10 14 -16 28c0.666992 0.666992 2.16699 2 4.5 4s4.83301 3 7.5 3c2 0 4.33301 -1 7 -3c17.333 -23.333 28 -36.666 32 -39.999c14 -13.333 29 -19.666 45 -18.999c13.333 -1.33301 22.333 0.666992 27 6c1.33301 4.66699 1.33301 8.33398 0 11.001
c-4 8 -13 17.333 -27 28c-16 12 -26 20.667 -30 26l-30 32c-0.666992 2 -1 4 -1 6c0 5.33301 2.66699 8.66602 8 9.99902l57 -18c12.667 -4 23.334 -5.66699 32.001 -5c24.667 2.66699 42.667 10.667 54 24c2.66699 3.33301 2.66699 7.66602 0 12.999
c-4.66699 4 -9.33398 6.66699 -14.001 8c-6.66699 0.666992 -10.667 1.66699 -12 3c-18.667 0 -26.667 0.333008 -24 1c-6 0 -15.167 0.666992 -27.5 2s-21.5 2 -27.5 2c2 0 4 0.333008 6 1h4c-6.66699 1.33301 -11.667 2 -15 2l-5 1h1h-1v0
c-8 -1.33301 -12.667 0.333984 -14 5.00098l-4 14l64 28c18 8.66699 35.333 24.334 52 47.001c4.66699 6.66699 7.66699 11.667 9 15c-1.33301 0.666992 -4.33301 0 -9 -2s-7.66699 -3 -9 -3c-11.333 -2 -26.333 -7.66699 -45 -17c-4.66699 -2 -12.667 -6.33301 -24 -13
c-1.33301 -2.66699 -4.33301 -4.66699 -9 -6c-6.66699 -8 -14.667 -12 -24 -12c-4 8.66699 -5.33301 15.334 -4 20.001c8 5.33301 24 18.666 48 39.999c8 8.66699 16.333 21.667 25 39c-18 0 -42 -13.333 -72 -40c-1.33301 -1.33301 -10 -8.33301 -26 -21
c-4 -3.33301 -11 -9.66602 -21 -18.999c-4.66699 -4.66699 -10.334 -9.66699 -17.001 -15v-1c0.666992 0 2 -0.333008 4 -1c2.66699 -2.66699 7.33398 -10.334 14.001 -23.001c0 -18 -7 -36.333 -21 -55c-5.33301 -6.66699 -13.333 -14.334 -24 -23.001h-1v0l2 1l-1 2l-1 -3
v0v-1c-0.666992 -0.666992 -1 -1.33398 -1 -2.00098c-24.667 -20 -49.334 -37 -74.001 -51c-6 -2.66699 -15.667 -7.33398 -29 -14.001c-30 -5.33301 -48 -2.33301 -54 9c-0.666992 0.666992 -2.33398 4.33398 -5.00098 11.001c2 19.333 11 37.333 27 54
c4 4.66699 19 18.334 45 41.001c4.66699 3.33301 13.334 10 26.001 20c3.33301 2.66699 11.666 7.33398 24.999 14.001c6.66699 7.33301 19.667 14.333 39 21c1.33301 1.33301 2 3.33301 2 6l38 35l44 38c17.333 15.333 33 26.333 47 33c3.33301 0 8.83301 1.33301 16.5 4
s13.5 4 17.5 4c3.33301 0 6.66602 -0.333008 9.99902 -1c8 -6.66699 12 -18.334 12 -35.001c-1.33301 -3.33301 -5 -9 -11 -17l-3 -4c14.667 6 27.667 9 39 9c9.33301 0 17.333 -2 24 -6c3.33301 -4 5 -8 5 -12c0 1.33301 -2.66699 -6 -8 -22
c-15.333 -25.333 -34 -44.333 -56 -57c-2.66699 -2.66699 -12.667 -8.33398 -30 -17.001c31.333 -2 49 -3.33301 53 -4c23.333 -4 37.666 -12 42.999 -24c7.33301 -16.667 7 -29 -1 -37c-25.333 -20.667 -49.666 -31 -72.999 -31c-14 0 -30 3 -48 9l4 -4
c2.66699 -2 6.66699 -6 12 -12c4.66699 -2.66699 15 -11 31 -25c10 -16.667 15 -27.667 15 -33c0 -2.66699 -0.333008 -5.33398 -1 -8.00098c-2 -4.66699 -6.66699 -10.667 -14 -18c-2.66699 -3.33301 -6.66699 -4.33301 -12 -3h-2
c-2.66699 -0.666992 -6.33398 -1 -11.001 -1c-8 0 -19.333 1 -34 3c0 1.33301 -1.33301 2 -4 2c4.66699 -10 10.667 -25.333 18 -46c2 -16 7.66699 -41.333 17 -76c0.666992 -2 4.66699 -25 12 -69v1c6 21.333 15.333 43.666 28 66.999c2 4 10.333 14 25 30
c7.33301 8.66699 22.666 24.667 45.999 48c20 19.333 34.333 36 43 50c8.66699 10 12.667 16.667 12 20c2.66699 3.33301 5.66699 5 9 5c2.66699 0 5.33398 -1.66699 8.00098 -5c2 -16 5.66699 -39 11 -69h1v-9zM360.002 497.009c-1.33301 0 -2.66699 0.333984 -4 1.00098
h-4c-1.33301 -0.666992 -8.66602 -2 -21.999 -4c-8.66699 -6.66699 -17 -11.667 -25 -15c-6.66699 -5.33301 -17.334 -12 -32.001 -20l-25 -21l-3 -3c-13.333 -12 -23 -21.333 -29 -28c-10 -12 -16 -24 -18 -36h5c22 0 53.333 14 94 42c36 25.333 57 49.666 63 72.999v11z
M640.001 285.01c0.666992 -5.33301 -2.66797 -14.333 -10.001 -27c-7.33301 -8 -31 -32 -71 -72c-6 -8.66699 -15.333 -21.334 -28 -38.001c-0.666992 -3.33301 -3.5 -9.5 -8.5 -18.5s-7.5 -15.833 -7.5 -20.5c-5.33301 -14.667 -8 -29 -8 -43v-45
c2.66699 -7.33301 6.33398 -18.666 11.001 -33.999l39 39c1.33301 1.33301 17.166 15 47.499 41s46.833 59.333 49.5 100c4.66699 19.333 2.33398 50 -6.99902 92c-0.666992 4.66699 -2.66699 13 -6 25z" />
    <glyph glyph-name="section" unicode="&#xa7;" horiz-adv-x="441" 
d="M187 403c-4.66699 1.33301 -6 4.00293 -4 8.00293c-1.33301 5.33301 0.666992 10.666 6 15.999c2 2 2.66699 3.66699 2 5c0.666992 10 9 20.333 25 31c10.667 -13.333 14 -28 10 -44c-1.33301 -4 -3.33301 -11 -6 -21c29.333 18 72 46 128 84
c7.33301 -0.666992 13.666 2.33301 18.999 9c7.33301 -6 11 -12 11 -18c0 -2 -3.33301 -10.333 -10 -25c-21.333 -12 -48.666 -30.333 -81.999 -55c-44 -32.667 -70.667 -52 -80 -58c0.666992 -6.66699 -1.33301 -13 -6 -19l-3 -6c-2 -2.66699 -3 -5.33398 -3 -8.00098
c0 -2 0.666992 -3.66699 2 -5c18.667 3.33301 41.334 10.333 68.001 21l68 27c9.33301 3.33301 24.666 7.66602 45.999 12.999c6 4 29.333 9.33301 70 16c-4.66699 -4 -10 -12 -16 -24c-0.666992 -2 -1.33398 -3.66699 -2.00098 -5c0 -10.667 -5.33301 -18.667 -16 -24l-1 1
c-1.33301 -5.33301 -3.66602 -9 -6.99902 -11c-6 -0.666992 -11.667 -5 -17 -13l-4 -6c-1.33301 -2.66699 -4.33301 -6.33398 -9 -11.001h1c8.66699 -2.66699 13 -8.66699 13 -18c-27.333 -5.33301 -58.333 -19.666 -93 -42.999c-11.333 -5.33301 -26.333 -15.5 -45 -30.5
s-33 -25.167 -43 -30.5c-2 -2 -11.333 -9 -28 -21c-8.66699 -6 -10.334 -12.333 -5.00098 -19c4 -7.33301 11.333 -16.333 22 -27c9.33301 -1.33301 27.666 5.33398 54.999 20.001c16.667 5.33301 41.334 15 74.001 29c9.33301 4 26 8.66699 50 14
c0 -6.66699 0.333008 -13.334 1 -20.001c0.666992 -3.33301 7 -9.33301 19 -18h-18c-30 -41.333 -56.667 -66.333 -80 -75c-1.33301 -5.33301 -10.333 -13.333 -27 -24l-1 -1c20.667 -11.333 37 -16.333 49 -15v-17c-4.66699 -0.666992 -9.33398 -1 -14.001 -1
c-17.333 0 -35.666 4.66699 -54.999 14c-6.66699 -4.66699 -16.334 -11 -29.001 -19c-7.33301 -4.66699 -11 -9.66699 -11 -15c0 -1.33301 0.333008 -3.33301 1 -6s1 -4.66699 1 -6c0 -3.33301 -2.66699 -6.33301 -8 -9l-6 -6c-2.66699 4.66699 -10 10 -22 16
c-7.33301 4 -11 9 -11 15c0 3.33301 1.33301 7 4 11c0.666992 9.33301 4.66699 17.666 12 24.999l21 21c-2.66699 2.66699 -5.66699 6 -9 10c-6 7.33301 -11.333 9.33301 -16 6c-7.33301 -6.66699 -19.5 -14 -36.5 -22s-28.833 -15 -35.5 -21v-12
c-3.33301 -4.66699 -7.66602 -7 -12.999 -7c-3.33301 0 -7 0.666992 -11 2c-1.33301 0.666992 -4.66602 1 -9.99902 1c0 4 -0.333008 6 -1 6l-1 2c-23.333 0 -37 0.333008 -41 1c-15.333 2.66699 -25.333 10.334 -30 23.001c2.66699 18 12 33.333 28 46l43 34
c32 26.667 48 50 48 70c0 5.33301 -0.666992 11 -2 17c8.66699 5.33301 16 20 22 44c-12 -6 -30 -11.333 -54 -16c-8.66699 -1.33301 -16.667 -2 -24 -2c-15.333 0 -29.666 5 -42.999 15c-1.33301 12 4 24.333 16 37l33 28c8 1.33301 17.667 7 29 17
c9.33301 8.66699 18.333 16 27 22c25.333 15.333 40.666 25.333 45.999 30c16 14 22.333 29.667 19 47zM347 312.003c-8.66699 -3.33301 -20.001 -6.99805 -34.001 -10.998c-3.33301 -5.33301 -9.33301 -8 -18 -8h-5c-23.333 -12 -45.333 -21 -66 -27
c-4 -2 -16.667 -9.66699 -38 -23c-11.333 -6.66699 -15.333 -15.334 -12 -26.001c35.333 17.333 68.666 35.666 99.999 54.999c18.667 1.33301 36.334 8.33301 53.001 21c6.66699 6.66699 13.334 13 20.001 19zM98.999 254.005c8.66699 1.33301 25 7.33301 49 18
c6.66699 20 10 28.333 10 25c-14 -6.66699 -33.667 -21 -59 -43zM290.999 88.0049l-4 -2.00195c-6 -3.33301 -12.667 -5 -20 -5c-2 -3.33301 -6.33301 -5.66602 -13 -6.99902l-2 -1c-3.33301 -5.33301 -10 -10.666 -20 -15.999h-1l2 -2l1 -2c15.333 1.33301 34.333 13 57 35
zM136.999 89.0029c-7.33301 -6 -11.666 -16 -12.999 -30v-4c8 2 18 6.66699 30 14c-6.66699 13.333 -12.334 20 -17.001 20zM84.999 46.0029l1 1l-1 -1v0zM58.999 28.0029c8.66699 3.33301 14.168 5.66699 16.501 7s5.16602 4.33301 8.49902 9
c-6 -2.66699 -14.333 -8 -25 -16z" />
    <glyph glyph-name="dieresis" unicode="&#xa8;" horiz-adv-x="215" 
d="M67 600c-2 -19.333 -12.333 -29.999 -31 -31.999c-10 6 -15 11 -15 15c-1.33301 7.33301 -2 13.666 -2 18.999c0 18.667 7.66699 28 23 28c5.33301 -1.33301 10.5 -2.83301 15.5 -4.5s8.16699 -5.5 9.5 -11.5v-14zM193 598.001
c-1.33301 -14.667 -9.33301 -22.668 -24 -24.001c-7.33301 4.66699 -11 8.33398 -11 11.001c-1.33301 6 -2 11 -2 15c0 14 6 21 18 21c4 -0.666992 8 -1.66699 12 -3s6.33301 -4.33301 7 -9v-11z" />
    <glyph glyph-name="copyright" unicode="&#xa9;" horiz-adv-x="685" 
d="M296 -64c-41.333 0 -77.998 6.99707 -109.998 20.9971c-10.667 0 -28.334 7.66699 -53.001 23c-5.33301 2.66699 -12.333 5.33398 -21 8.00098c0 5.33301 -3 9 -9 11h-3c-1.33301 0.666992 -2.66602 1 -3.99902 1c-33.333 21.333 -64.333 53.333 -93 96
c-4 3.33301 -8.33301 9.66602 -13 18.999s-8.66699 15.333 -12 18c-13.333 18.667 -23.666 42.667 -30.999 72l-19 76c-4.66699 46.667 -6.33398 86 -5.00098 118l5 7c-4.66699 48 8.33301 96.667 39 146l22 7c2 -12 -0.666992 -26.833 -8 -44.5s-10 -30.5 -8 -38.5
c-8.66699 -30.667 -13 -64 -13 -100c0 -46 7.33301 -97.667 22 -155c7.33301 -9.33301 15.833 -26.666 25.5 -51.999s19.5 -43.333 29.5 -54c14 -10.667 24 -24 30 -40c73.333 -69.333 154 -104 242 -104c95.333 0 192.666 45.333 291.999 136c60.667 55.333 91 131 91 227
c0 78.667 -24 148.667 -72 210c-8 10 -31.667 36.667 -71 80c-93.333 56 -185 84 -275 84c-96 0 -166.333 -36.667 -211 -110c-34 -42 -51.333 -90.333 -52 -145c1.33301 -16.667 1 -41.667 -1 -75c2.66699 -2.66699 4 -6 4 -10c0 -3.33301 -1.33301 -7.66602 -4 -12.999
l5 -5c2 -20 7.33301 -55.667 16 -107c-10.667 10.667 -19.667 23.667 -27 39c-16.667 54.667 -25 107 -25 157c0 70 17.833 130.667 53.5 182s86.167 88.666 151.5 111.999c38.667 6.66699 73.667 10 105 10c41.333 0 76.333 -4.66699 105 -14
c23.333 -3.33301 63.666 -16.333 120.999 -39c10 -4 35.333 -19 76 -45c93.333 -77.333 140 -181 140 -311c0 -41.333 -4 -75.666 -12 -102.999c-16.667 -55.333 -52.667 -108.666 -108 -159.999c-98 -90 -203 -135 -315 -135zM434.002 192.997l-33.0029 -29
c-36.667 -30.667 -78.667 -46 -126 -46c-24.667 0 -48.667 5.33301 -72 16c-37.333 24 -56 70.333 -56 139c32 154 89 254 171 300c32.667 -5.33301 53.334 -22 62.001 -50c2 -6 1 -11.833 -3 -17.5s-9.33301 -8.5 -16 -8.5c-3.33301 0 -7.16602 1.83301 -11.499 5.5
s-8.16602 5.5 -11.499 5.5c-2 0 -4.33301 -0.666992 -7 -2l-36 -33c-14 -12.667 -23 -25.667 -27 -39c-10.667 -13.333 -22.667 -37.666 -36 -72.999c-13.333 -18.667 -21.333 -41.667 -24 -69v-74c8 -28.667 21.333 -44.334 40 -47.001c5.33301 -0.666992 12 -1 20 -1
c24.667 0 52 7.66699 82 23l77 40l2 1c4 3.33301 9 5 15 5c3.33301 0 7.33301 -0.666992 12 -2c0 -17.333 -7.33301 -32 -22 -44z" />
    <glyph glyph-name="ordfeminine" unicode="&#xaa;" horiz-adv-x="269" 
d="M202 19v1.00098l1 -1l2 -1c2.66699 -2.66699 4 -5 4 -7c0 -3.33301 -3 -6.66602 -9 -9.99902c-1.33301 0.666992 -16 2.33398 -44 5.00098c-18 2 -32.333 6 -43 12c-21.333 6 -42 17.667 -62 35c-2 -4 -3.33301 -15.333 -4 -34c-0.666992 -16 -5 -28.333 -13 -37
c-12.667 -2 -21.667 5.66699 -27 23c0 4.66699 1.66699 24.667 5 60c2 23.333 3 42.666 3 57.999c-1.33301 6 -2 12 -2 18c0 14 6 32.667 18 56c15.333 85.333 23.333 130.666 24 135.999c11.333 55.333 24 99 38 131c4 8.66699 9.66699 13 17 13c10.667 0 20.667 -6 30 -18
c2.66699 -8 -0.333008 -14.667 -9 -20c-2 -2 -3 -3.66699 -3 -5c-18 -44.667 -34.333 -108.334 -49 -191.001c8 4.66699 19.667 11 35 19c24.667 12 47.667 18 69 18c10 0 19.667 -1.33301 29 -4c7.33301 -13.333 10 -23.333 8 -30c-6 -5.33301 -16 -8.33301 -30 -9
s-23 -2.66699 -27 -6c-59.333 -13.333 -94 -45 -104 -95c-1.33301 -19.333 7.16699 -38.5 25.5 -57.5s37.5 -30.833 57.5 -35.5c14 -2 33.333 -8 58 -18z" />
    <glyph glyph-name="guillemotleft" unicode="&#xab;" horiz-adv-x="1543" 
d="M993 2l164.998 0.000976562c9.33301 0 43.666 -1 102.999 -3c14 -0.666992 39.333 -2 76 -4c6.66699 0.666992 13.334 0 20.001 -2c9.33301 1.33301 22.666 1 39.999 -1c20 -2.66699 33.667 -4 41 -4c18.667 0.666992 31.334 0 38.001 -2
c3.33301 -2.66699 5 -6.33398 5 -11.001c0 -2 -0.333008 -4.33301 -1 -7c-2.66699 -1.33301 -12.667 -3 -30 -5c-27.333 -3.33301 -39.333 -5 -36 -5c-2.66699 -0.666992 -6.33398 -1.33398 -11.001 -2.00098c-0.666992 0 -23 -2.66699 -67 -8l-93 -12
c-20.667 -4 -58 -10 -112 -18c-20 -2.66699 -52.333 -6.66699 -97 -12c-4.66699 0 -13.167 0.666992 -25.5 2s-21.833 1.66602 -28.5 0.999023l-1 1c-3.33301 0 -8.16602 0.5 -14.499 1.5s-11.166 1.5 -14.499 1.5c-21.333 5.33301 -46.333 13 -75 23
c-2 0.666992 -5.33301 2.66699 -10 6c-9.33301 2.66699 -15.666 8 -18.999 16v3l-1 1l-1 2c-1.33301 2 -2 4 -2 6c0 3.33301 1.66699 7 5 11c4 -1.33301 7.66699 -3.66602 11 -6.99902c0.666992 2.66699 2 4.33398 4 5.00098l2 3c18.667 8 33.667 12 45 12
c4 0.666992 9 1.66699 15 3c36.667 3.33301 59.667 5 69 5zM876.998 -33.999l0.999023 -1.00098c0 -1.33301 0.333008 -2.66602 1 -3.99902v-3c3.33301 -1.33301 8.33301 -3.66602 15 -6.99902l52 -16c8.66699 -0.666992 22.334 -2.33398 41.001 -5.00098
c28 -4 65.667 -3 113 3l6 2c2.66699 -0.666992 6 -0.666992 10 0c6 1.33301 9.66699 2 11 2c7.33301 0 17.666 1.33301 30.999 4c7.33301 0.666992 17.166 2 29.499 4s31.166 5.66699 56.499 11h6c6.66699 0 11.334 0.666992 14.001 2c18.667 2.66699 38 5 58 7l41 7
c2.66699 0 5.33398 0.333008 8.00098 1c-12.667 1.33301 -34.667 3 -66 5l-163 3c-2 -0.666992 -3.66699 -0.666992 -5 0c-21.333 0.666992 -53.666 1 -96.999 1c-6.66699 0 -17 -0.333008 -31 -1c-1.33301 0.666992 -5.33301 1 -12 1h-5c-12 0 -45.333 -3.66699 -100 -11
c-3.33301 -1.33301 -8.33301 -3 -15 -5zM804.997 -59c-2 -2.66699 -5.66699 -5.66602 -11 -8.99902c-0.666992 -1.33301 -3.33398 -3.33301 -8.00098 -6c-14.667 -5.33301 -25.667 -8 -33 -8c-6.66699 -3.33301 -15.334 -3.33301 -26.001 0c-19.333 6 -31.333 17 -36 33
c-2.66699 24 11.333 39.667 42 47c4 1.33301 10.667 3.33301 20 6c30.667 1.33301 49.334 -4 56.001 -16c8.66699 -16.667 7.33398 -32.334 -3.99902 -47.001zM723.997 -59.999l1.99902 2.00195c0.666992 1.33301 1.66699 2.66602 3 3.99902
c6 -0.666992 9.66699 -2.66699 11 -6l1 -3c20 0 33 3.33301 39 10c1.33301 0 5 3.33301 11 10c0 1.33301 0.666992 2.66602 2 3.99902l1 1c0 10.667 -0.333008 16.334 -1 17.001l-18 7l1 1h-3l2 -1c-23.333 -0.666992 -43.666 -7.33398 -60.999 -20.001
c-5.33301 -4 -7 -8.33301 -5 -13l5 -6c4 -4 7.33301 -6.33301 10 -7zM648.996 -37.9971c1.33301 -0.666992 2.99707 -1.33203 4.99707 -1.99902c2 -4 3 -7.33301 3 -10c0 -2 -0.333008 -4 -1 -6c-5.33301 -4.66699 -13.666 -9.66699 -24.999 -15
c-1.33301 -1.33301 -12.666 -5.66602 -33.999 -12.999c-6 -2 -20 -4.66699 -42 -8c-1.33301 0 -5 -0.666992 -11 -2c-4 -0.666992 -7.33301 -0.666992 -10 0c-16.667 -1.33301 -31 -1 -43 1c-2 -1.33301 -3.66699 -2 -5 -2c-2 0 -3.66699 0.666992 -5 2
c-16 0 -34 1.33301 -54 4l-15 2c-4 0.666992 -29 3.33398 -75 8.00098v1l-25 3c-10.667 1.33301 -31.334 4.33301 -62.001 9v1l-40 7v1c-2.66699 0 -4.66699 0.333008 -6 1c-4 0.666992 -13 1.66699 -27 3v2c-19.333 4 -48.666 9.66699 -87.999 17
c-5.33301 0 -13.666 2.66699 -24.999 8c-6.66699 0.666992 -17 2.33398 -31 5.00098c-5.33301 1.33301 -8 3.66602 -8 6.99902c0 2 1 4 3 6c9.33301 4 18 5 26 3c2.66699 0 4.66699 -0.333008 6 -1l124 -2c33.333 1.33301 81.333 2.66602 144 3.99902
c7.33301 0 35 3.66699 83 11l-33 -8c26.667 1.33301 49.334 1.66602 68.001 0.999023h38c14 0 25.333 -0.333008 34 -1c1.33301 0.666992 7.66602 0.666992 18.999 0c27.333 -0.666992 43.666 -1.33398 48.999 -2.00098c16.667 -2 32.334 -6 47.001 -12
c8.66699 -7.33301 14 -15 16 -23zM631.993 -46.9951c-2.66699 8 -9.33691 13.6689 -20.0039 17.002c-6.66699 1.33301 -12 2.66602 -16 3.99902c-51.333 5.33301 -110.333 7.33301 -177 6l1 -1h-31c-12.667 -0.666992 -31.667 -2 -57 -4c-2 0 -3.33301 0.333008 -4 1
l-155 -7c2.66699 0.666992 6.83398 0.333984 12.501 -0.999023s9.5 -2 11.5 -2s3.66699 -0.666992 5 -2c7.33301 0 13.666 -1 18.999 -3c2.66699 -0.666992 4.66699 -1 6 -1l106 -18c6.66699 -1.33301 26.334 -3.33301 59.001 -6
c10.667 -0.666992 25.834 -2.33398 45.501 -5.00098s33.834 -4 42.501 -4h14c1.33301 -1.33301 2.33301 -1.66602 3 -0.999023h3c2 0.666992 3.33301 0.666992 4 0c11.333 1.33301 31.333 2.66602 60 3.99902c12.667 0.666992 17.334 1 14.001 1
c13.333 3.33301 31.333 10.666 54 21.999z" />
    <glyph glyph-name="logicalnot" unicode="&#xac;" horiz-adv-x="882" 
d="M805 363l-1 1zM805 363h-1h1zM817 345c2 -2 3.32715 -3.66406 3.99414 -4.99707l-4 4c15.333 -26 23 -52.333 23 -79c0 -22 -5 -43 -15 -63l-1 -2c-1.33301 -4 -3.66602 -7.66699 -6.99902 -11l-2 -3c0 -0.666992 -0.666992 -1.33398 -2 -2.00098v-2
c-6 -12.667 -19.667 -25.667 -41 -39l-1 -2c-1.33301 -2.66699 -4 -4.33398 -8 -5.00098l-4 -4c-3.33301 -0.666992 -7.33301 -4.33398 -12 -11.001c-4 0 -9.33301 -2.16699 -16 -6.5s-10.667 -6.83301 -12 -7.5c-6 -2 -14 -6 -24 -12h-6v-1l-1 -1
c-3.33301 -0.666992 -4.66602 -1 -3.99902 -1c-2.66699 -0.666992 -6.66699 -3.33398 -12 -8.00098l-5 -1c0 -4 -2 -5.33301 -6 -4c-2 -2 -6 -4.33301 -12 -7c-1.33301 -1.33301 -8.66602 -6.33301 -21.999 -15c-1.33301 -1.33301 -5 -4.33301 -11 -9
c-3.33301 0 -8 -3 -14 -9c2.66699 -0.666992 6 -2 10 -4c-7.33301 1.33301 -11.666 2 -12.999 2l-7 -7c1.33301 3.33301 2.66602 5.66602 3.99902 6.99902v0c-3.33301 0 -5.66602 -0.333008 -6.99902 -1l-2 -2c-6.66699 -3.33301 -10.667 -5 -12 -5l-2 -1v1l-3 -4
c-1.33301 0.666992 -3.83301 -0.166016 -7.5 -2.49902s-6.16699 -3.5 -7.5 -3.5c-6 -4 -12.333 -6 -19 -6c-10.667 -4.66699 -22.334 -8.66699 -35.001 -12c-9.33301 -4.66699 -22.333 -7.66699 -39 -9c-7.33301 -3.33301 -16.666 -5 -27.999 -5
c-3.33301 -2 -12 -3.66699 -26 -5c-2 -0.666992 -8 -2 -18 -4c2.66699 1.33301 4.33398 2 5.00098 2h-36c-5.33301 -0.666992 -14.666 -1 -27.999 -1h-29c-12 0 -40 4.33301 -84 13c-2 -0.666992 -5 -0.666992 -9 0c-5.33301 1.33301 -8.83301 2.16602 -10.5 2.49902
s-9.83398 3.16602 -24.501 8.49902c-42.667 16 -72 32.333 -88 49c-16.667 12 -32 33.333 -46 64c-8 24 -12 45.667 -12 65c0 15.333 2.66699 28.333 8 39c8 20.667 17.333 40.334 28 59.001c0.666992 2 2.33398 4.33301 5.00098 7c16 24 34 45.333 54 64
c4.66699 6 10.167 11 16.5 15s14.5 10.333 24.5 19l4 1h-1c2.66699 2.66699 4.33398 4 5.00098 4c13.333 7.33301 26.333 15 39 23c1.33301 0 10.666 4 27.999 12c4 2.66699 7.66699 4.33398 11 5.00098c7.33301 3.33301 17.666 8.33301 30.999 15
c8.66699 2.66699 24 8 46 16c15.333 5.33301 33.333 10.333 54 15c6 1.33301 14.333 3.33301 25 6c38.667 4 59.334 6 62.001 6c19.333 0 36 -4 50 -12c1.33301 -2.66699 6 -4.66699 14 -6c3.33301 0 5.66602 -0.333008 6.99902 -1c7.33301 -1.33301 18 -2.33301 32 -3
c20 -4 33.667 -6 41 -6h5c5.33301 0 9.33301 -1.33301 12 -4c4.66699 0 11.334 -1.66699 20.001 -5l2 1c2 1.33301 4.33301 0.666016 7 -2.00098c7.33301 0 14.333 -2.33301 21 -7c2 -1.33301 3 -1.66602 3 -0.999023c4 0 7 -0.666992 9 -2l4 -2
c-0.666992 0 -1 -0.333008 -1 -1h6c4.66699 -0.666992 11.334 -4 20.001 -10l9 -3c10 -8 22 -14.667 36 -20c1.33301 -0.666992 4.66602 -4 9.99902 -10l1 -2c2 -2 3.33301 -3 4 -3l4 -7c0.666992 0.666992 1 1.66699 1 3c4.66699 -4 11 -10.667 19 -20l-1 2l2 -3
c2.66699 -1.33301 4.66699 -3.66602 6 -6.99902s4 -6.33301 8 -9zM749.994 146.003c4 3.33301 8.66602 7.00098 13.999 11.001l12 9l15 15c6.66699 8.66699 15.667 22.334 27 41.001c0.666992 2.66699 2 6 4 10c3.33301 10.667 5 22 5 34c0 15.333 -2.66699 30 -8 44
c0.666992 2 0.333984 3 -0.999023 3l-1 2c-1.33301 3.33301 -4 8.66602 -8 15.999c-2 2 -3.66699 5.33301 -5 10c-5.33301 5.33301 -8.33301 9.66602 -9 12.999l-1 2l-3 2c-0.666992 2 -2.66699 3.33301 -6 4l-2 4c-2 2.66699 -6 6 -12 10c-2 3.33301 -4 5.33301 -6 6l-4 3
l-3 3c-11.333 7.33301 -24.333 15.333 -39 24c-12.667 6.66699 -24.667 11.667 -36 15l1 -1c6 -3.33301 10.333 -6 13 -8h2l14 -13l1 2c2 -2.66699 4.66699 -5.66699 8 -9l5 -4c24 -24 39.667 -48.667 47 -74c0.666992 -1.33301 2 -4.66602 4 -9.99902
c1.33301 -8.66699 3 -21.667 5 -39c0 -4 -1.66699 -16.667 -5 -38c-0.666992 -3.33301 -2 -7.16602 -4 -11.499s-3 -7.5 -3 -9.5c-12 -27.333 -22 -45 -30 -53c-2.66699 -2.66699 -4 -5.33398 -4 -8.00098c-6 -6.66699 -15.333 -16.334 -28 -29.001
c12 6.66699 25.667 14.667 41 24zM620.993 435.004l-3 1l1 -1h2zM597.993 77.0039l2 1.99707c2 0 5.16699 0.833008 9.5 2.5s7.5 2.16699 9.5 1.5l38 15c6.66699 4.66699 16 13.334 28 26.001c2 0.666992 4.66699 2 8 4l2 2c2 3.33301 4.33301 5.33301 7 6
c20.667 22.667 36.334 45 47.001 67l-1 -1c-6.66699 -9.33301 -16.667 -21.666 -30 -36.999c-2 0 -3 -0.666992 -3 -2l-1 -2c-1.33301 -3.33301 -3.66602 -5 -6.99902 -5l-14 -11c-2 -4.66699 -5.66699 -8 -11 -10l-3 -2l-4 -4l-13 -5c-8 -6.66699 -16 -11.667 -24 -15
c-4.66699 -1.33301 -10.334 -5.66602 -17.001 -12.999c-2.66699 0 -5.33398 -0.666992 -8.00098 -2l-2 -1c-2 -3.33301 -4.66699 -4.33301 -8 -3c-4 -1.33301 -9.66699 -4.66602 -17 -9.99902c-2 -0.666992 -4.33301 -1 -7 -1c-2.66699 -4 -6 -6 -10 -6
c-1.33301 -0.666992 -4.33301 -2 -9 -4h-3l-29 -11c4.66699 1.33301 10.667 2.66602 18 3.99902l12 3zM480.993 63.001l-3.00293 0.00292969c17.333 3.33301 28.333 6.33301 33 9l8 3c2.66699 0.666992 4.66699 1 6 1c4 1.33301 9.33301 3.66602 16 6.99902
c2.66699 -0.666992 6.16699 0.333008 10.5 3s7.33301 4.16699 9 4.5s3.5 0.833008 5.5 1.5l5 3c12 7.33301 23 12 33 14c2 0.666992 12 6.33398 30 17.001c62 36 100.667 76 116 120c3.33301 9.33301 5 19.666 5 30.999c0 19.333 -4.33301 36.666 -13 51.999
c-4.66699 8.66699 -13 19 -25 31c-23.333 24 -54.333 42.667 -93 56c-1.33301 0.666992 -7 2.66699 -17 6c-3.33301 1.33301 -24.666 5.66602 -63.999 12.999c-2.66699 -0.666992 -5.66699 -0.666992 -9 0c-4.66699 1.33301 -7.66699 2 -9 2h-1l-3 -1
c-3.33301 -0.666992 -6 -0.5 -8 0.5s-5.66699 1.5 -11 1.5c-16 0 -42.667 -2.66699 -80 -8c16.667 3.33301 33 6.33301 49 9h-2c-15.333 0 -31.333 -0.666992 -48 -2c-3.33301 0 -10.666 -1.66699 -21.999 -5c2.66699 0 -12 -2.33301 -44 -7c-8 -1.33301 -23.667 -6 -47 -14
c-13.333 -4.66699 -24.333 -9.66699 -33 -15h-1c-8.66699 -6 -22 -14.333 -40 -25c-4 -4.66699 -8.66699 -8.66699 -14 -12c-7.33301 -6 -19 -17.667 -35 -35c-2.66699 -2.66699 -6 -6.33398 -10 -11.001c-12.667 -14.667 -27 -34 -43 -58l-16 -34
c0 -2.66699 -0.833008 -5.83398 -2.5 -9.50098s-2.5 -6.5 -2.5 -8.5c-3.33301 -6.66699 -4.66602 -15.667 -3.99902 -27c-1.33301 -8 -0.333008 -20.333 3 -37c-1.33301 5.33301 -2.33301 8.66602 -3 9.99902v-1c4.66699 -23.333 17.667 -44 39 -62
c18 -19.333 53.667 -33 107 -41l1 -1c22 -3.33301 40.333 -4.66602 55 -3.99902l1 -1c13.333 0 33.333 0.666992 60 2c6 0.666992 15 2.33398 27 5.00098c6 -1.33301 10.333 -0.666016 13 2.00098c16.667 2 33 5 49 9c2.66699 -0.666992 10 1.33301 22 6zM309.99 436.004
l1 0.000976562c5.33301 1.33301 21.333 6.66602 48 15.999c-8.66699 -2 -17.667 -4.66699 -27 -8c-4 0 -8 -1.66699 -12 -5c-2.66699 0.666992 -5.66699 0 -9 -2zM46.9902 163.005c1.33301 8 2.66504 16.6689 3.99805 26.002c0 7.33301 1 12.666 3 15.999c0 2 1 5 3 9
s3 7.66699 3 11c0 -3.33301 4.66699 8 14 34l20 33c1.33301 1.33301 2.83301 3.16602 4.5 5.49902s2.83398 3.83301 3.50098 4.5l1 3c-23.333 -29.333 -38.666 -57.333 -45.999 -84c-7.33301 -10.667 -11 -27 -11 -49v-1l1 -3v-5zM505.989 45.0068l5 -2.99902
c0 -0.666992 -0.333008 -1.33398 -1 -2.00098c5.33301 0.666992 16.333 2.66699 33 6h-31c-0.666992 0 -2.66699 -0.333008 -6 -1zM59.9893 141.008l-0.00195312 -1.00098c0.666992 -1.33301 1 -2.33301 1 -3v-1c4 -25.333 11.333 -44 22 -56
c28.667 -33.333 66.334 -55 113.001 -65c4 -0.666992 19.333 -3.66699 46 -9c10.667 -0.666992 25.334 -2.33398 44.001 -5.00098c3.33301 0 12.333 -1 27 -3c10 -1.33301 19 -1.33301 27 0l1 -1h16c4 1.33301 7.33301 2 10 2h27c15.333 1.33301 37 4 65 8
c5.33301 2.66699 25.666 8.33398 60.999 17.001l2 1l14 6c4 1.33301 7.33301 2 10 2c6.66699 2 15.667 6.66699 27 14c2.66699 -0.666992 4.66699 -0.666992 6 0l1 2l11 4c3.33301 2 7 4.33301 11 7c-1.33301 0 -11.666 -2.66699 -30.999 -8
c-6 -1.33301 -17 -4.33301 -33 -9c-8 0 -14.667 -1.66699 -20 -5c-6 -2 -10.333 -1 -13 3v-1l-1 2c-0.666992 0.666992 -1 1.66699 -1 3c-3.33301 -0.666992 -5 -1.33398 -5 -2.00098c0 -1.33301 1.33301 -3.33301 4 -6c-6.66699 -1.33301 -15.334 -3.33301 -26.001 -6h-19
c-6 -2 -15.667 -3 -29 -3c-2 -2 -5.33301 -2.33301 -10 -1c0 0.666992 0.333008 1.33398 1 2.00098l-9 -1l1 -2h-12c-3.33301 0 -5.66602 -0.666992 -6.99902 -2c-10 -1.33301 -22.667 -2.66602 -38 -3.99902c-44.667 -3.33301 -89 -0.666016 -133 8.00098l-18 6
c-8 2.66699 -14.667 4.66699 -20 6c-1.33301 0.666992 -11.333 6 -30 16c-59.333 32 -87 80 -83 144c0 1.33301 0.333008 3 1 5l-5 -10c0 6 -1.33301 -2.33301 -4 -25c0 -6.66699 -0.666992 -16.334 -2 -29.001zM185.987 354.007
c-16.667 -11.333 -35.335 -29.001 -56.002 -53.001c-10 -12 -19.167 -28.667 -27.5 -50s-12.833 -40.333 -13.5 -57c0.666992 2 1.33398 4.5 2.00098 7.5s2.66699 10.167 6 21.5c8 26.667 24.667 55.667 50 87c8.66699 10.667 20.334 23.334 35.001 38.001
c2 1.33301 5 4 9 8z" />
    <glyph glyph-name="registered" unicode="&#xae;" horiz-adv-x="520" 
d="M120 545l-9 3c-6 8 -9.66699 20.5 -11 37.5s-3.66602 28.167 -6.99902 33.5c-10 78 -14 133.333 -12 166c1.33301 16 7 52.667 17 110c3.33301 19.333 -0.666992 34 -12 44l6 15c8.66699 0 18 -7 28 -21c2 -9.33301 3 -18.666 3 -27.999
c0 -11.333 -2.5 -28.833 -7.5 -52.5s-7.16699 -41.834 -6.5 -54.501c-4.66699 -40.667 -1.66699 -99 9 -175c3.33301 -7.33301 5.83301 -19 7.5 -35s3.5 -27.333 5.5 -34c-2.66699 -6 -6.33398 -9 -11.001 -9zM336 177l1 1.99805c10.667 0 19.834 -5.5 27.501 -16.5
s13.5 -16.833 17.5 -17.5c16.667 -2.66699 31.667 0.333008 45 9c8.66699 8.66699 14.667 21 18 37c1.33301 9.33301 3.66602 23 6.99902 41c-2 2.66699 -2.33301 9.66699 -1 21c-0.666992 2.66699 -1 11.334 -1 26.001c0 10 -2.66699 18.667 -8 26l1 2v0
c-6 26.667 -14.667 44.334 -26 53.001c-8 -0.666992 -19.667 -3.33398 -35 -8.00098c-0.666992 -6 -4.66699 -10.667 -12 -14c-0.666992 -1.33301 -0.666992 -3 0 -5c-2 -2.66699 -5.33301 -6.66699 -10 -12c9.33301 4.66699 17.666 7 24.999 7c4.66699 0 8.66699 -1 12 -3
c12 0.666992 20 -5.66602 24 -18.999c1.33301 -2 4 -7.66699 8 -17c2.66699 -6 3.33398 -12 2.00098 -18c2 -6 3 -12.667 3 -20c0 -22 -8 -42 -24 -60c-4 -1.33301 -8.66699 -2 -14 -2c-12 0 -28 2.66699 -48 8l-1 1c-1.33301 -0.666992 -4 -1 -8 -1l1 -6
c-0.666992 -3.33301 -2 -8 -4 -14zM321 368.998c-7.33301 3.33301 -14.9971 7.99902 -22.9971 13.999c-12.667 8.66699 -24.334 12.667 -35.001 12c-14.667 -0.666992 -41.334 -3 -80.001 -7c-0.666992 0.666992 -1.33398 1 -2.00098 1c2.66699 -4.66699 4 -8.66699 4 -12
s-1.16699 -6.16602 -3.5 -8.49902s-4.5 -3.5 -6.5 -3.5c-4 0 -8 2.66699 -12 8l-6 12l-1 1c-9.33301 0.666992 -22 -1.66602 -38 -6.99902c-3.33301 0.666992 -6.33301 1 -9 1c-3.33301 0 -8.16602 -1.16699 -14.499 -3.5s-11.5 -3.5 -15.5 -3.5
c-2.66699 -4 -9.33398 -6.66699 -20.001 -8c-3.33301 0 -5.33301 -0.666992 -6 -2h2c5.33301 0 12.333 -2.33301 21 -7c30.667 -6 57 -7.33301 79 -4c30.667 4.66699 67 9.66699 109 15c4 2.66699 7.33301 3.66699 10 3h3c2 0 3.66699 1.33301 5 4
c11.333 1.33301 21.333 -2.33398 30 -11.001c2.66699 2.66699 5.66699 4.66699 9 6zM250.003 36.9971l-2.00098 -4.00293c-11.333 -11.333 -26.666 -17.333 -45.999 -18c-28 -0.666992 -44.667 -2 -50 -4c-7.33301 -1.33301 -13 0 -17 4l-2 -3
c-2.66699 -4.66699 -6.66699 -7.66699 -12 -9c-12 4 -22 11.667 -30 23c0 0.666992 -6 11.667 -18 33c-19.333 36 -31.333 68.333 -36 97l-5 29l-29 167c-1.33301 1.33301 -2 7.33301 -2 18c3.33301 3.33301 7.33301 5 12 5c3.33301 0 7 -0.666992 11 -2l2 2
c4.66699 10 11 15.333 19 16c22 11.333 55.667 20 101 26c2.66699 24 8 42.667 16 56c0.666992 5.33301 2.66699 12.666 6 21.999c8.66699 14.667 13 31.667 13 51c0 28 -8 57 -24 87c0 18.667 4.66699 30.334 14 35.001c6.66699 1.33301 12.334 -3.33398 17.001 -14.001
c-2 -5.33301 -3 -10.666 -3 -15.999c0 -3.33301 4.66699 -18.666 14 -45.999c4 -8 6 -16.667 6 -26v-2c1.33301 -0.666992 2 -2 2 -4c0.666992 -8.66699 -1.66602 -25.334 -6.99902 -50.001c-1.33301 -6 -2 -13 -2 -21c-2.66699 0 -4 -1.66699 -4 -5s-0.333008 -6 -1 -8
c-13.333 -20.667 -20 -37.667 -20 -51v-2c1.33301 0 2 -1.33301 2 -4c10 0 24.667 1 44 3c2.66699 12 3.66699 25.667 3 41c-1.33301 21.333 -2.33301 35.333 -3 42c3.33301 31.333 5.66602 49.333 6.99902 54c2 18 7 35 15 51c10 40 12 70.667 6 92
c-2.66699 10 -11.334 24.333 -26.001 43c-4 2.66699 -6 6.66699 -6 12s3 8.66602 9 9.99902c12 -3.33301 22 -12.333 30 -27c5.33301 -10.667 8.66602 -16.667 9.99902 -18c8 -28.667 12 -53 12 -73c0 -23.333 -5 -43 -15 -59c-10 -22 -15 -49 -15 -81
c0 -9.33301 0.333008 -23.333 1 -42v-42c6 0 18 -2 36 -6c12.667 -2.66699 29.667 -11 51 -25l1 -4v1l3 -2c1.33301 -0.666992 3 -2 5 -4v-23c-2 0 -4 0.333008 -6 1c2 -4 3 -9 3 -15v-3l4 4c4 4 6.33301 9 7 15c5.33301 2 9.33301 4.33301 12 7l3 3
c10.667 10.667 25.334 16 44.001 16c16.667 0 30 -6.33301 40 -19c1.33301 -6 5 -14.667 11 -26l12 -59c0 -0.666992 0.666992 -6.33398 2 -17.001c0.666992 -6 0.666992 -11.667 0 -17c1.33301 -8.66699 1 -20 -1 -34c-2.66699 -17.333 -4 -28.666 -4 -33.999
c-1.33301 -28 -13.666 -49.333 -36.999 -64c-11.333 -5.33301 -23 -8 -35 -8c-16 0 -29 4.66699 -39 14c-1.33301 2.66699 -6.33301 8.66699 -15 18c-6.66699 7.33301 -10 14.333 -10 21c0 2.66699 0.333008 5.33398 1 8.00098l-7 -22
c0.666992 -4.66699 -1 -11.834 -5 -21.501s-5.33301 -17.5 -4 -23.5c-5.33301 -4.66699 -9.66602 -12 -12.999 -22c-4 -12 -7.33301 -19.667 -10 -23c0.666992 -9.33301 -3.66602 -17.666 -12.999 -24.999l-5 -4c-2 -2.66699 -4.33301 -4 -7 -4
c-7.33301 0 -11 3.66699 -11 11c5.33301 19.333 16.666 47 33.999 83c1.33301 9.33301 4.66602 23 9.99902 41l-4 5c4.66699 2.66699 7.33398 7.33398 8.00098 14.001c0 1.33301 0.666992 3.33301 2 6c10 30 14 66.333 12 109c-4 12 -7.33301 30.333 -10 55
c-2 -4 -6.33301 -7 -13 -9c-1.33301 1.33301 -3 2 -5 2c-2.66699 0 -5.66699 -1.33301 -9 -4c-6.66699 1.33301 -16 0.666016 -28 -2.00098s-20.667 -3.66699 -26 -3c-36.667 -10 -81 -14 -133 -12c-14.667 3.33301 -36.667 8 -66 14
c-0.666992 -1.33301 -0.666992 -4.66602 0 -9.99902c1.33301 -6 2 -9.66699 2 -11c4.66699 -16 6.66699 -26 6 -30c3.33301 -9.33301 6.16602 -24.666 8.49902 -45.999s5.5 -37 9.5 -47c5.33301 -64.667 25.666 -116.667 60.999 -156c2.66699 -3.33301 6 -6.33301 10 -9
c1.33301 4.66699 4.66602 8.66699 9.99902 12c1.33301 0 18.333 1 51 3c20.667 1.33301 35.667 6.33301 45 15c2.66699 0.666992 5.33398 1 8.00098 1c7.33301 0 11 -4.33301 11 -13c0 -3.33301 -1.33301 -6.66602 -4 -9.99902zM348.002 253.994l1.00098 -4v-24l36 -9
c3.33301 0 6.33301 0.666992 9 2c8 2.66699 12 16.334 12 41.001l-2 2c0 2.66699 -0.5 6.66699 -1.5 12s-1.5 9.33301 -1.5 12c-2 5.33301 -5.66699 8.66602 -11 9.99902c-4.66699 0.666992 -8.66699 -1 -12 -5c-9.33301 0 -14 -2.33301 -14 -7c0 -2 0.5 -4.83301 1.5 -8.5
s1.5 -6.5 1.5 -8.5c0 -6.66699 -2.66699 -12.667 -8 -18c-4.66699 1.33301 -8.33398 3 -11.001 5z" />
    <glyph glyph-name="macron" unicode="&#xaf;" horiz-adv-x="582" 
d="M1891 368c-6.66699 0 3.66797 -0.333008 31.001 -1h30c8 -1.33301 11.333 -6 10 -14c-5.33301 -1.33301 -11.333 -2 -18 -2h-14h-56c-30 -0.666992 -56.333 -1 -79 -1h-12h-45h-20c-10.667 0.666992 -19.667 1 -27 1h-2l-3 -1h-138h-12
c-6.66699 -0.666992 -12.334 -1 -17.001 -1h-30c-6.66699 0 -23.667 -0.333008 -51 -1s-51.333 -1 -72 -1h-16h-18c-12.667 -0.666992 -23.334 -1 -32.001 -1h-51c-20.667 0 -69.334 1.66699 -146.001 5c-16 0.666992 -24 3.66699 -24 9c0 2 3.16699 4.16699 9.5 6.5
s9.83301 3.83301 10.5 4.5c5.33301 0 9.33301 0.333008 12 1h25c22 0.666992 30.333 1 25 1h37c8 0 20 0.333008 36 1h36h25c24 0 46.667 -0.333008 68 -1s30 -1 26 -1h27c4 0 9.33301 0.333008 16 1h11c24 0 59.667 -0.666992 107 -2s83.333 -2 108 -2
c16.667 0 32.334 0.333008 47.001 1c10 0.666992 23.333 0.333984 40 -0.999023c20.667 -0.666992 34.334 -1 41.001 -1c10 1.33301 21.667 1.33301 35 0c9.33301 -0.666992 33 -0.333984 71 0.999023zM1045 333l0.000976562 -15.001
c-0.666992 -6.66699 -2.33398 -16 -5.00098 -28c-1.33301 -2 -3 -8.33301 -5 -19c-1.33301 -7.33301 -6 -13.666 -14 -18.999c-9.33301 8 -17.333 19.333 -24 34c-16 36.667 -25.333 67 -28 91c-2 20 3.33301 41.667 16 65c2 5.33301 6.33301 10 13 14
c5.33301 -3.33301 8 -7.33301 8 -12c0 -2 -0.666992 -4.33301 -2 -7l26 -47c10 -20 15 -37 15 -51c0.666992 -2 0.666992 -4 0 -6zM135.003 341.999l-62.002 -0.000976562c-7.33301 1.33301 -11 6 -11 14c4 0.666992 14.667 1.33398 32 2.00098
c25.333 0.666992 70.333 1.66699 135 3c2.66699 0.666992 6.66699 1 12 1h94l2 1h8c3.33301 0 11 0.333008 23 1h33h12l244 6c2.66699 0 8 0.333008 16 1l100 3c2 0 22.333 -0.666992 61 -2c31.333 -1.33301 60 -2 86 -2h8c2.66699 0 4.66699 -0.333008 6 -1
c7.33301 -2 11 -4.33301 11 -7c0 -1.33301 -2.66699 -3.5 -8 -6.5s-9 -4.5 -11 -4.5c-4.66699 0 -10.667 -0.333008 -18 -1c-10 -1.33301 -16.333 -2 -19 -2c-11.333 -0.666992 -19.666 -0.666992 -24.999 0c-13.333 0 -31.333 -0.333008 -54 -1
c-27.333 -1.33301 -45.666 -2 -54.999 -2h-24h-94h-27c-4.66699 0 -10.667 -0.333008 -18 -1h-10h-215c0.666992 0 -15 -0.333008 -47 -1h-81h-35h-36c-15.333 -0.666992 -26.333 -1 -33 -1z" />
    <glyph glyph-name="macron" unicode="&#x2c9;" horiz-adv-x="582" 
d="M1891 368c-6.66699 0 3.66797 -0.333008 31.001 -1h30c8 -1.33301 11.333 -6 10 -14c-5.33301 -1.33301 -11.333 -2 -18 -2h-14h-56c-30 -0.666992 -56.333 -1 -79 -1h-12h-45h-20c-10.667 0.666992 -19.667 1 -27 1h-2l-3 -1h-138h-12
c-6.66699 -0.666992 -12.334 -1 -17.001 -1h-30c-6.66699 0 -23.667 -0.333008 -51 -1s-51.333 -1 -72 -1h-16h-18c-12.667 -0.666992 -23.334 -1 -32.001 -1h-51c-20.667 0 -69.334 1.66699 -146.001 5c-16 0.666992 -24 3.66699 -24 9c0 2 3.16699 4.16699 9.5 6.5
s9.83301 3.83301 10.5 4.5c5.33301 0 9.33301 0.333008 12 1h25c22 0.666992 30.333 1 25 1h37c8 0 20 0.333008 36 1h36h25c24 0 46.667 -0.333008 68 -1s30 -1 26 -1h27c4 0 9.33301 0.333008 16 1h11c24 0 59.667 -0.666992 107 -2s83.333 -2 108 -2
c16.667 0 32.334 0.333008 47.001 1c10 0.666992 23.333 0.333984 40 -0.999023c20.667 -0.666992 34.334 -1 41.001 -1c10 1.33301 21.667 1.33301 35 0c9.33301 -0.666992 33 -0.333984 71 0.999023zM1045 333l0.000976562 -15.001
c-0.666992 -6.66699 -2.33398 -16 -5.00098 -28c-1.33301 -2 -3 -8.33301 -5 -19c-1.33301 -7.33301 -6 -13.666 -14 -18.999c-9.33301 8 -17.333 19.333 -24 34c-16 36.667 -25.333 67 -28 91c-2 20 3.33301 41.667 16 65c2 5.33301 6.33301 10 13 14
c5.33301 -3.33301 8 -7.33301 8 -12c0 -2 -0.666992 -4.33301 -2 -7l26 -47c10 -20 15 -37 15 -51c0.666992 -2 0.666992 -4 0 -6zM135.003 341.999l-62.002 -0.000976562c-7.33301 1.33301 -11 6 -11 14c4 0.666992 14.667 1.33398 32 2.00098
c25.333 0.666992 70.333 1.66699 135 3c2.66699 0.666992 6.66699 1 12 1h94l2 1h8c3.33301 0 11 0.333008 23 1h33h12l244 6c2.66699 0 8 0.333008 16 1l100 3c2 0 22.333 -0.666992 61 -2c31.333 -1.33301 60 -2 86 -2h8c2.66699 0 4.66699 -0.333008 6 -1
c7.33301 -2 11 -4.33301 11 -7c0 -1.33301 -2.66699 -3.5 -8 -6.5s-9 -4.5 -11 -4.5c-4.66699 0 -10.667 -0.333008 -18 -1c-10 -1.33301 -16.333 -2 -19 -2c-11.333 -0.666992 -19.666 -0.666992 -24.999 0c-13.333 0 -31.333 -0.333008 -54 -1
c-27.333 -1.33301 -45.666 -2 -54.999 -2h-24h-94h-27c-4.66699 0 -10.667 -0.333008 -18 -1h-10h-215c0.666992 0 -15 -0.333008 -47 -1h-81h-35h-36c-15.333 -0.666992 -26.333 -1 -33 -1z" />
    <glyph glyph-name="degree" unicode="&#xb0;" horiz-adv-x="146" 
d="M151 630c0.666992 -0.666992 1.33301 -1.99609 2 -3.99609c-0.666992 -1.33301 -1.33398 -2.33301 -2.00098 -3c-0.666992 -20.667 -5 -37.334 -13 -50.001c-1.33301 -1.33301 -2.33301 -3 -3 -5l-2 -5c-16 -20 -27 -33 -33 -39c-16.667 -16 -33.667 -25 -51 -27
c-3.33301 0 -8.66602 0.833008 -15.999 2.5s-14.333 7 -21 16s-9.66699 17.833 -9 26.5c1.33301 27.333 6.66602 49.666 15.999 66.999c6 23.333 23.667 45.666 53 66.999c6.66699 3.33301 16 7 28 11c5.33301 1.33301 10 1.33301 14 0l5 1
c16.667 -9.33301 27.334 -24.333 32.001 -45c0.666992 -4 1 -7.66699 1 -11c-0.666992 -0.666992 -1 -1.33398 -1 -2.00098zM103.999 664.004l1.00098 -1l-3 -4c-1.33301 2 -2.66602 3 -3.99902 3l-5 -2c-4.66699 -4 -12.334 -9.33301 -23.001 -16
c-27.333 -34 -41 -65.333 -41 -94c3.33301 -12.667 10.666 -19 21.999 -19c2.66699 0 6 0.333008 10 1s8.66699 1.5 14 2.5s10.5 4.16699 15.5 9.5s10.5 12 16.5 20c22.667 27.333 31.667 52.333 27 75c-1.33301 5.33301 -3.33301 10.333 -6 15
c0 1.33301 -1.16699 2.5 -3.5 3.5s-3.5 2.16699 -3.5 3.5l-7 3c-2.66699 0.666992 -5 1 -7 1c-0.666992 -0.666992 -1.66699 -1 -3 -1z" />
    <glyph glyph-name="plusminus" unicode="&#xb1;" horiz-adv-x="847" 
d="M798 227c0 -6.66699 -4.99902 -10.999 -14.999 -12.999c-64 -14.667 -114.333 -23.334 -151 -26.001c38 -68 77.667 -123 119 -165c5.33301 -5.33301 8 -10 8 -14c0 -7.33301 -3.33301 -11.666 -10 -12.999l-232 111l-9 3c-0.666992 -20.667 -3 -57 -7 -109
c-3.33301 -46 -5 -82.333 -5 -109l-1 -5l-7 -10c-18.667 9.33301 -36.667 31 -54 65l-36 81c-5.33301 12.667 -14.333 30 -27 52c-14 -6.66699 -32 -19 -54 -37c-24 -19.333 -41.667 -32 -53 -38c-25.333 -14 -61.333 -32 -108 -54
c-4.66699 3.33301 -9.33398 10.666 -14.001 21.999l59 135l29 54l-105 29c-40 10 -75.667 14.667 -107 14l-7 8c0.666992 1.33301 1 2.66602 1 3.99902c0 -3.33301 -1 1.33398 -3 14.001c18.667 11.333 58.334 23.333 119.001 36c24.667 5.33301 62 16.666 112 33.999
c-14 25.333 -42.333 60.666 -85 105.999c-62 68 -93.667 102.667 -95 104l-3 1l-1 11h-1c-1.33301 2.66699 -2 5 -2 7c0 4.66699 3 8 9 10c76.667 -27.333 155.334 -74 236.001 -140v5c0.666992 8 -1 21.333 -5 40l8 4l-10 8l-37 191c0.666992 2.66699 2 4.33398 4 5.00098
v1c0 6 4 9 12 9c7.33301 0 30.666 -33.333 69.999 -100l69 -120c11.333 18.667 27.666 43.334 48.999 74.001c16 14.667 37 39 63 73l1 2c-0.666992 3.33301 2.66602 10.666 9.99902 21.999l1 -1c1.33301 4 4 6 8 6c8 0 12 -3 12 -9
c0 -1.33301 -0.333008 -1.66602 -1 -0.999023l3 -5c-1.33301 -22.667 -10 -80 -26 -172c53.333 8 96 12 128 12c12.667 0 31.167 -1.5 55.5 -4.5s42.5 -4.5 54.5 -4.5c8 0 13 -4.33301 15 -13c-1.33301 -8 -5.66602 -14 -12.999 -18l-143 -74l65 -46
c26 -17.333 50 -28 72 -32l3 -3v1l1 -1h7c16 0 24 -5.66699 24 -17zM728.001 233.001c-5.33301 2 -12.9961 5.66699 -22.9961 11c-15.333 11.333 -39 26.666 -71 45.999c-12.667 6 -31.334 15.333 -56.001 28l6 5c-4.66699 4 -7 8 -7 12
c0 2.66699 1.33301 5.33398 4 8.00098c27.333 7.33301 73.666 29 138.999 65c-20.667 3.33301 -38.667 5 -54 5c-61.333 0 -112.333 -6.66699 -153 -20c-2 2.66699 -5.33301 6.66699 -10 12c-4.66699 1.33301 -7 5.33301 -7 12c17.333 38.667 26 81.667 26 129
c-38.667 -38 -67 -75.333 -85 -112l-18 -35c-2 -0.666992 -3.66699 -1 -5 -1c-2.66699 0 -8.33398 3.66699 -17.001 11c-8.66699 29.333 -43.334 88.333 -104.001 177c7.33301 -44 19 -110 35 -198c2 -10.667 3 -20.667 3 -30c0 -6 -0.333008 -11.667 -1 -17l-9 3
c-1.33301 0 -1.66602 -0.333008 -0.999023 -1h-9l-5 6v-1c-0.666992 0.666992 -1.66699 2.33398 -3 5.00098c-14 21.333 -43.333 47 -88 77c-38.667 25.333 -73.667 44.666 -105 57.999c71.333 -78 126.666 -142.667 165.999 -194v-7c0 -6 -2.33301 -9.66699 -7 -11
c-20.667 -6 -51.667 -15.667 -93 -29c-4 0 -10.333 -1.33301 -19 -4s-15.334 -3.66699 -20.001 -3c-14.667 -2.66699 -36.667 -8 -66 -16c40 -8 99.667 -21 179 -39c6.66699 -2 10 -10.333 10 -25l-45 -84c-16.667 -32.667 -29 -61.667 -37 -87l4 1
c0.666992 0.666992 5.83398 2.66699 15.501 6s25.167 11.833 46.5 25.5s36 24.167 44 31.5c2.66699 2.66699 7.33398 6 14.001 10c6.66699 9.33301 19 19.333 37 30s32 16 42 16h4c8.66699 -14.667 22.667 -45.667 42 -93c17.333 -40.667 33 -70.667 47 -90
c5.33301 30 6.66602 54 3.99902 72c2 4.66699 3 28.334 3 71.001c0 46.667 5.66699 71.667 17 75c38 -15.333 104.333 -46 199 -92l-54 76c-28.667 41.333 -43 64.333 -43 69c0 2 0.666992 5 2 9l1 1v-1c0.666992 4.66699 4.16699 7.16699 10.5 7.5s9.5 2.16602 9.5 5.49902
c46 2 81 6.66699 105 14z" />
    <glyph glyph-name="acute" unicode="&#xb4;" horiz-adv-x="169" 
d="M46 604c22.667 29.333 49.667 46.001 81 50.001c0.666992 -2 2 -4.66699 4 -8s2.33301 -7 1 -11s-4.33301 -6.33301 -9 -7h-1c-4 -0.666992 -6.33301 -2.33398 -7 -5.00098c-20 -12 -33 -20.667 -39 -26c-14 -12.667 -24.667 -26 -32 -40c-5.33301 -2 -9.5 0 -12.5 6
s-4.16699 11.667 -3.5 17z" />
    <glyph glyph-name="mu" unicode="&#xb5;" horiz-adv-x="778" 
d="M616 629c-3.33301 1.33301 -7 3.33105 -11 5.99805c5.33301 3.33301 9.66602 6.66602 12.999 9.99902c8 0.666992 15.333 -1 22 -5l20 -12c26 -16 37.333 -40.333 34 -73c0 -1.33301 -0.666992 -3.66602 -2 -6.99902s-1.66602 -6 -0.999023 -8
c-3.33301 -6.66699 -10 -15.667 -20 -27c-0.666992 -1.33301 -1.66699 -2.66602 -3 -3.99902c-28.667 -21.333 -56 -30.333 -82 -27c-14 -0.666992 -28 8.33301 -42 27c-6 8 -10 18 -12 30c-2 13.333 -1.66699 24.666 1 33.999c0.666992 4 3 10 7 18
c1.33301 2.66699 9 10.334 23 23.001l8 4c1.33301 0.666992 4.66602 1.66699 9.99902 3c16.667 4.66699 28.334 7.33398 35.001 8.00098zM622 608.998c1.33301 -3.33301 2.00195 -6.66699 2.00195 -10c0 -2.66699 -0.333008 -5.33398 -1 -8.00098h-16c0 6 -2 10.333 -6 13
c-1.33301 -0.666992 -7.66602 -3 -18.999 -7c-0.666992 -1.33301 -2.33398 -3 -5.00098 -5l-4 -3l-4 -4l-3 -4c-2.66699 -1.33301 -4.33398 -4 -5.00098 -8l-5 -10c-1.33301 -4 -2 -10.333 -2 -19c-0.666992 -15.333 6.66602 -27.666 21.999 -36.999
c2 -0.666992 7.66699 -2 17 -4c6 -1.33301 11.667 -1.33301 17 0c44.667 12 67 34.333 67 67c0 15.333 -12.333 31.333 -37 48c1.33301 -2.66699 2 -6 2 -10c-3.33301 -0.666992 -6.33301 -1 -9 -1c-3.33301 0 -6.33301 0.666992 -9 2h-2zM627.002 384.997
c2 8.66699 3.33301 14.168 4 16.501s3.66699 5.83301 9 10.5c2.66699 -5.33301 4 -10.333 4 -15c0 -2.66699 -0.666992 -5.33398 -2 -8.00098zM714.002 456.998c0.666992 0 1.32812 -1.00098 1.99512 -3.00098c0 -10 0.666992 -24.667 2 -44c-0.666992 -2 0 -7.33301 2 -16
c0.666992 -16 0.333984 -39.667 -0.999023 -71c-1.33301 -7.33301 -2.66602 -28 -3.99902 -62c-1.33301 -1.33301 -1.66602 -2.66602 -0.999023 -3.99902l1 -3l-3 -60c0.666992 -2 1 -7 1 -15c0 -9.33301 -0.333008 -24.666 -1 -45.999c0.666992 -1.33301 1 -3.33301 1 -6
v-43c0.666992 -2 0.333984 -4.66699 -0.999023 -8v-1c0 -28.667 0.666992 -49.334 2 -62.001c1.33301 -1.33301 1.66602 -4 0.999023 -8l-2 -2c-2.66699 -4.66699 -5.66699 -7 -9 -7c-2 0 -4 0.666992 -6 2l-3 -1h-5l-8 8l-3 26l-1 4v7c0 62.667 -6.33301 125.667 -19 189
c-3.33301 2.66699 -7.66602 7.66699 -12.999 15l-2 12c-6 37.333 -8 69.666 -6 96.999l1 3c0 1.33301 0.666992 4.33301 2 9c0.666992 3.33301 0.666992 6 0 8c2.66699 10.667 6.33398 22.667 11.001 36c1.33301 8.66699 9 24 23 46
c1.33301 2.66699 4.33301 6.33398 9 11.001c15.333 0 25.333 -3.66699 30 -11zM691.996 117.997l0.000976562 14.998c-0.666992 26 -0.333984 53.333 0.999023 82c2 43.333 3 70.333 3 81l1 80c1.33301 8 1.33301 20 0 36c-1.33301 16.667 -2 28.334 -2 35.001
c-2 -2 -9 -14.333 -21 -37l-3 -11c-0.666992 -2 -2 -5.66699 -4 -11c0 -1.33301 -0.833008 -4.16602 -2.5 -8.49902s-2.16699 -7.16602 -1.5 -8.49902v-6c0 -2 -0.666992 -4 -2 -6c-2.66699 -12.667 -2.66699 -31.667 0 -57c0.666992 -8.66699 3 -25.667 7 -51v-1
c3.33301 -2 6.33301 -4 9 -6l1 -1l2 -1c0.666992 -6.66699 2 -15.334 4 -26.001c1.33301 -22 4 -54.667 8 -98zM392.997 509.995c10.667 -2 26.3359 -4.66895 47.0029 -8.00195c1.33301 -0.666992 3.33301 -1 6 -1c15.333 -3.33301 38.333 -7 69 -11
c-4.66699 0 0.666016 0.333008 15.999 1c13.333 0.666992 22.666 -3.33301 27.999 -12c0.666992 -3.33301 -2 -10.333 -8 -21c-4 -4 -7.66699 -5.33301 -11 -4h-3l-5 -1c-2 0.666992 -5.66699 2 -11 4c-6.66699 0 -31.667 1.66699 -75 5c-3.33301 0 -12 0.666992 -26 2
c-18.667 1.33301 -35.334 1.33301 -50.001 0c-1.33301 0.666992 -3.33301 1 -6 1h-6c-2.66699 0.666992 -7 0.333984 -13 -0.999023c-2.66699 0.666992 -10 1.66699 -22 3c-14.667 1.33301 -25.334 0.333008 -32.001 -3l-24 -16
c-3.33301 -1.33301 -8.66602 -4.33301 -15.999 -9c-12.667 -5.33301 -23 -6.33301 -31 -3c-26.667 10 -40 25.333 -40 46c-0.666992 6 2.66602 20 9.99902 42c15.333 20 33 30 53 30c6.66699 -2 14.834 -6.66699 24.501 -14s16.5 -11.666 20.5 -12.999
c42 -11.333 75 -17 99 -17h6zM257.999 520.993c1.33301 -2.66699 1.33691 -5.66602 0.00390625 -8.99902l-5 -3h1l-1 -1h-1c-2.66699 0 -6 1 -10 3l-1 1h-2c-10.667 -2 -20.334 -11.667 -29.001 -29c0 -4.66699 0.666992 -9.33398 2 -14.001l-3 -5
c9.33301 -6 15.666 -8.33301 18.999 -7c16 5.33301 29.333 11.666 40 18.999l1 1l-4 -1c8 4.66699 20.333 10 37 16c13.333 -1.33301 32.666 -2.33301 57.999 -3h12l-1 1c-11.333 0.666992 -27.333 2.33398 -48 5.00098c-10 3.33301 -25 8 -45 14
c-2.66699 0.666992 -9.33398 4.66699 -20.001 12zM175.003 406.994l2.00195 7.99609c-0.666992 -20.667 -3.33398 -49.667 -8.00098 -87c-1.33301 -5.33301 -9 -15.666 -23 -30.999c0.666992 -3.33301 1.33398 -7.66602 2.00098 -12.999c-1.33301 -12 -4 -31.333 -8 -58
c-0.666992 -4 -1.33398 -12 -2.00098 -24l-3 -2l1 -2c0.666992 -3.33301 0 -6.33301 -2 -9c0.666992 -2 1 -6.33301 1 -13c-0.666992 -3.33301 -1.16699 -8.16602 -1.5 -14.499s-0.666016 -10.666 -0.999023 -12.999s-0.833008 -4.5 -1.5 -6.5
c1.33301 -2.66699 1.33301 -5.66699 0 -9c0 -4 -0.5 -9.5 -1.5 -16.5s-1.5 -12.5 -1.5 -16.5v-6c0 -6 -0.666992 -15.333 -2 -28c0.666992 2 1.66699 4.33301 3 7c-3.33301 -20.667 -5 -34 -5 -40v-14c-0.666992 -4.66699 -1 -7.66699 -1 -9c0 -6 1.66699 -10.667 5 -14
c0.666992 -4 0 -7 -2 -9h-1l1 1l-7 -4c-15.333 2 -25.333 10.333 -30 25c-1.33301 7.33301 -2 22 -2 44v52c-3.33301 46.667 -7 107.667 -11 183c-14.667 6 -24.334 12.333 -29.001 19c-2.66699 4 -5 15.667 -7 35c0.666992 2.66699 1 16.667 1 42
c0 17.333 3 30.666 9 39.999l-1 1c0 10.667 4 15.667 12 15c4 -1.33301 6.66699 -4.66602 8 -9.99902v-3c0 -21.333 2 -41 6 -59v-2c8.66699 34 13.667 62.667 15 86c1.33301 4 3.33301 6 6 6c1.33301 0 3 -0.666992 5 -2h1c6 -3.33301 9.66699 -9 11 -17
s2.33301 -15.667 3 -23c-0.666992 -2.66699 -0.333984 -6.33398 0.999023 -11.001s2 -8 2 -10c0 -7.33301 0.666992 -18.333 2 -33c9.33301 12 15.333 23 18 33c3.33301 5.33301 6.16602 14.833 8.49902 28.5s4.83301 22.334 7.5 26.001s6.33398 4.5 11.001 2.5l2 -1
c1.33301 -4 3 -9.33301 5 -16l-1 -6c0 0.666992 0.333008 1 1 1v-1c1.33301 -4.66699 2 -12 2 -22zM127.005 310.99l1.99609 0.995117l3 3c2.66699 0.666992 4.33398 2 5.00098 4c4.66699 5.33301 9.33398 13.333 14.001 24c0.666992 12.667 1.33398 23.334 2.00098 32.001
c-2.66699 -6 -9.66699 -17.333 -21 -34c-3.33301 -3.33301 -8.66602 -7.66602 -15.999 -12.999c-4.66699 -2 -8.33398 -0.666992 -11.001 4h2l-6 4c-1.33301 6.66699 -2 12.167 -2 16.5s-0.333008 11.5 -1 21.5c0 -2 -0.333008 -3.66699 -1 -5l-1 -1v-3
c0 -3.33301 -0.666992 -5.66602 -2 -6.99902v-3c-0.666992 -1.33301 -1 -2.33301 -1 -3h-1l1 -4c-2 -4 -4.33301 -10 -7 -18v-1c-2 -4.66699 -4.66699 -7 -8 -7c-2 0 -4.33301 0.666992 -7 2h1l-5 2c-1.33301 1.33301 -3 5.33301 -5 12c0 -6 0.666992 -12.667 2 -20
c5.33301 -6 12.333 -9 21 -9l8 -4l2 -2c0.666992 0 2 -0.666992 4 -2c0 -19.333 -0.333008 -30.666 -1 -33.999l8 -118c-0.666992 -5.33301 -0.666992 -12.333 0 -21c1.33301 -10 2 -16.667 2 -20v-12c3.33301 38 8 94.667 14 170c-1.33301 4 -2 6.66699 -2 8v2h1l-1 4l-1 1
c-3.33301 1.33301 -5.33301 3 -6 5s-1 4 -1 6c0 2.66699 1 5.33398 3 8.00098c1.33301 0 2 0.333008 2 1v2l2 6c2.66699 1.33301 5.33398 2 8.00098 2zM183.001 230.985l-1 -4l1 6v-2zM545.001 261.985c-0.666992 -7.33301 -2 -18.001 -4 -32.001
c0 -4.66699 -0.666992 -12 -2 -22c0.666992 -0.666992 1 -2 1 -4c0 -0.666992 -0.333008 -2 -1 -4c0.666992 -6.66699 -1 -16 -5 -28l-1 6c-1.33301 -13.333 -2 -18 -2 -14l-3 -2l-5 -6l3 2c-11.333 -22 -25 -39.667 -41 -53c-6.66699 -3.33301 -16.334 -9 -29.001 -17
c-3.33301 -3.33301 -9.66602 -7.33301 -18.999 -12c-4 -1.33301 -13.333 -5.33301 -28 -12l1 1l-36 -9c-4 1.33301 -7.66699 1.33301 -11 0c-17.333 -1.33301 -30.666 -0.666016 -39.999 2.00098c-20 6 -31.833 9.16699 -35.5 9.5s-6.5 1.83301 -8.5 4.5
c-13.333 4.66699 -27.333 18 -42 40c-0.666992 4 -2.66699 9.66699 -6 17c-4.66699 18 -7 37.333 -7 58c0 25.333 3.33301 45.333 10 60c4 8.66699 7.33301 16.667 10 24c10 16 25.333 33 46 51c8.66699 6 20.667 13 36 21c4 2 8 4.33301 12 7c10.667 4 27 8.66699 49 14
c3.33301 0 14.333 1.66699 33 5c5.33301 0.666992 13.166 -0.333008 23.499 -3s17.5 -4 21.5 -4c48.667 -17.333 75.667 -51.333 81 -102zM243.001 181.984c0 0.666992 0.666992 2.00391 2 4.00391l2 5c-2.66699 -14 -3.33398 -25.333 -2.00098 -34v-6
c0 -2.66699 0.833008 -6.66699 2.5 -12s2.5 -9.33301 2.5 -12c8.66699 -22.667 25 -37.667 49 -45c8.66699 -2.66699 23.334 -5.33398 44.001 -8.00098c10 0.666992 25.333 3 46 7l2 2h1h2c0.666992 0 1.66699 0.666992 3 2c24.667 6.66699 48.667 23 72 49
c20.667 24 36 49 46 75c2.66699 5.33301 4 9.33301 4 12c-1.33301 23.333 -6.66602 44 -15.999 62c-11.333 21.333 -22.333 37 -33 47c0 -1.33301 -1 -3 -3 -5l-4 -4h-2v1l-4 -5c-2 -0.666992 -4 -1 -6 -1c-4 0 -8 2 -12 6l7 7l3 2l3 3v1l-1 2
c-2 1.33301 -7 3.66602 -15 6.99902l-29 3h-7l-39 -9c-7.33301 -2 -20.333 -8 -39 -18c-15.333 -8.66699 -31.333 -22.334 -48 -41.001c-2 -2 -3.66699 -4.33301 -5 -7l-3 -3l-8 -16l1 5l-1 -1v-2c0 1.33301 -3 -7 -9 -25c0 -0.666992 -0.666992 -3 -2 -7l-1 -3
c0 -0.666992 -0.333008 -2.33398 -1 -5.00098c-2.66699 -12 -3.33398 -23 -2.00098 -33z" />
    </font>
</defs>
</svg>
